  0
SECTION
  2
HEADER
  9
$ACADVER
  1
AC1015
  9
$ACADMAINTVER
 70
     6
  9
$DWGCODEPAGE
  3
ANSI_1252
  9
$INSBASE
 10
0.0
 20
0.0
 30
0.0
  9
$EXTMIN
 10
-5.14489345779498
 20
-0.23452093780543
 30
0.0
  9
$EXTMAX
 10
291.8551065422055
 20
209.7654790621948
 30
0.0
  9
$LIMMIN
 10
0.0
 20
0.0
  9
$LIMMAX
 10
12.0
 20
9.0
  9
$ORTHOMODE
 70
     0
  9
$REGENMODE
 70
     1
  9
$FILLMODE
 70
     1
  9
$QTEXTMODE
 70
     0
  9
$MIRRTEXT
 70
     1
  9
$LTSCALE
 40
1.0
  9
$ATTMODE
 70
     1
  9
$TEXTSIZE
 40
0.2
  9
$TRACEWID
 40
0.05
  9
$TEXTSTYLE
  7
Standard
  9
$CLAYER
  8
0
  9
$CELTYPE
  6
ByLayer
  9
$CECOLOR
 62
   256
  9
$CELTSCALE
 40
1.0
  9
$DISPSILH
 70
     0
  9
$DIMSCALE
 40
1.0
  9
$DIMASZ
 40
0.18
  9
$DIMEXO
 40
0.0625
  9
$DIMDLI
 40
0.38
  9
$DIMRND
 40
0.0
  9
$DIMDLE
 40
0.0
  9
$DIMEXE
 40
0.18
  9
$DIMTP
 40
0.0
  9
$DIMTM
 40
0.0
  9
$DIMTXT
 40
0.18
  9
$DIMCEN
 40
0.09
  9
$DIMTSZ
 40
0.0
  9
$DIMTOL
 70
     0
  9
$DIMLIM
 70
     0
  9
$DIMTIH
 70
     1
  9
$DIMTOH
 70
     1
  9
$DIMSE1
 70
     0
  9
$DIMSE2
 70
     0
  9
$DIMTAD
 70
     0
  9
$DIMZIN
 70
     0
  9
$DIMBLK
  1

  9
$DIMASO
 70
     1
  9
$DIMSHO
 70
     1
  9
$DIMPOST
  1

  9
$DIMAPOST
  1

  9
$DIMALT
 70
     0
  9
$DIMALTD
 70
     2
  9
$DIMALTF
 40
25.4
  9
$DIMLFAC
 40
1.0
  9
$DIMTOFL
 70
     0
  9
$DIMTVP
 40
0.0
  9
$DIMTIX
 70
     0
  9
$DIMSOXD
 70
     0
  9
$DIMSAH
 70
     0
  9
$DIMBLK1
  1

  9
$DIMBLK2
  1

  9
$DIMSTYLE
  2
Standard
  9
$DIMCLRD
 70
     0
  9
$DIMCLRE
 70
     0
  9
$DIMCLRT
 70
     0
  9
$DIMTFAC
 40
1.0
  9
$DIMGAP
 40
0.09
  9
$DIMJUST
 70
     0
  9
$DIMSD1
 70
     0
  9
$DIMSD2
 70
     0
  9
$DIMTOLJ
 70
     1
  9
$DIMTZIN
 70
     0
  9
$DIMALTZ
 70
     0
  9
$DIMALTTZ
 70
     0
  9
$DIMUPT
 70
     0
  9
$DIMDEC
 70
     4
  9
$DIMTDEC
 70
     4
  9
$DIMALTU
 70
     2
  9
$DIMALTTD
 70
     2
  9
$DIMTXSTY
  7
Standard
  9
$DIMAUNIT
 70
     0
  9
$DIMADEC
 70
     0
  9
$DIMALTRND
 40
0.0
  9
$DIMAZIN
 70
     0
  9
$DIMDSEP
 70
    46
  9
$DIMATFIT
 70
     3
  9
$DIMFRAC
 70
     0
  9
$DIMLDRBLK
  1

  9
$DIMLUNIT
 70
     2
  9
$DIMLWD
 70
    -2
  9
$DIMLWE
 70
    -2
  9
$DIMTMOVE
 70
     0
  9
$LUNITS
 70
     2
  9
$LUPREC
 70
     4
  9
$SKETCHINC
 40
0.1
  9
$FILLETRAD
 40
0.5
  9
$AUNITS
 70
     0
  9
$AUPREC
 70
     0
  9
$MENU
  1
.
  9
$ELEVATION
 40
0.0
  9
$PELEVATION
 40
0.0
  9
$THICKNESS
 40
0.0
  9
$LIMCHECK
 70
     0
  9
$CHAMFERA
 40
0.5
  9
$CHAMFERB
 40
0.5
  9
$CHAMFERC
 40
1.0
  9
$CHAMFERD
 40
0.0
  9
$SKPOLY
 70
     0
  9
$TDCREATE
 40
2456997.60667463
  9
$TDUCREATE
 40
2456997.565007963
  9
$TDUPDATE
 40
2456997.606674988
  9
$TDUUPDATE
 40
2456997.565008322
  9
$TDINDWG
 40
0.0000000116
  9
$TDUSRTIMER
 40
0.0000000116
  9
$USRTIMER
 70
     1
  9
$ANGBASE
 50
0.0
  9
$ANGDIR
 70
     0
  9
$PDMODE
 70
     0
  9
$PDSIZE
 40
0.0
  9
$PLINEWID
 40
0.0
  9
$SPLFRAME
 70
     0
  9
$SPLINETYPE
 70
     6
  9
$SPLINESEGS
 70
     8
  9
$HANDSEED
  5
546
  9
$SURFTAB1
 70
     6
  9
$SURFTAB2
 70
     6
  9
$SURFTYPE
 70
     6
  9
$SURFU
 70
     6
  9
$SURFV
 70
     6
  9
$UCSBASE
  2

  9
$UCSNAME
  2

  9
$UCSORG
 10
0.0
 20
0.0
 30
0.0
  9
$UCSXDIR
 10
1.0
 20
0.0
 30
0.0
  9
$UCSYDIR
 10
0.0
 20
1.0
 30
0.0
  9
$UCSORTHOREF
  2

  9
$UCSORTHOVIEW
 70
     0
  9
$UCSORGTOP
 10
0.0
 20
0.0
 30
0.0
  9
$UCSORGBOTTOM
 10
0.0
 20
0.0
 30
0.0
  9
$UCSORGLEFT
 10
0.0
 20
0.0
 30
0.0
  9
$UCSORGRIGHT
 10
0.0
 20
0.0
 30
0.0
  9
$UCSORGFRONT
 10
0.0
 20
0.0
 30
0.0
  9
$UCSORGBACK
 10
0.0
 20
0.0
 30
0.0
  9
$PUCSBASE
  2

  9
$PUCSNAME
  2

  9
$PUCSORG
 10
0.0
 20
0.0
 30
0.0
  9
$PUCSXDIR
 10
1.0
 20
0.0
 30
0.0
  9
$PUCSYDIR
 10
0.0
 20
1.0
 30
0.0
  9
$PUCSORTHOREF
  2

  9
$PUCSORTHOVIEW
 70
     0
  9
$PUCSORGTOP
 10
0.0
 20
0.0
 30
0.0
  9
$PUCSORGBOTTOM
 10
0.0
 20
0.0
 30
0.0
  9
$PUCSORGLEFT
 10
0.0
 20
0.0
 30
0.0
  9
$PUCSORGRIGHT
 10
0.0
 20
0.0
 30
0.0
  9
$PUCSORGFRONT
 10
0.0
 20
0.0
 30
0.0
  9
$PUCSORGBACK
 10
0.0
 20
0.0
 30
0.0
  9
$USERI1
 70
     0
  9
$USERI2
 70
     0
  9
$USERI3
 70
     0
  9
$USERI4
 70
     0
  9
$USERI5
 70
     0
  9
$USERR1
 40
18.1
  9
$USERR2
 40
0.0
  9
$USERR3
 40
0.0
  9
$USERR4
 40
0.0
  9
$USERR5
 40
0.0
  9
$WORLDVIEW
 70
     1
  9
$SHADEDGE
 70
     3
  9
$SHADEDIF
 70
    70
  9
$TILEMODE
 70
     1
  9
$MAXACTVP
 70
    64
  9
$PINSBASE
 10
0.0
 20
0.0
 30
0.0
  9
$PLIMCHECK
 70
     0
  9
$PEXTMIN
 10
1.00000000000000E+20
 20
1.00000000000000E+20
 30
1.00000000000000E+20
  9
$PEXTMAX
 10
-1.00000000000000E+20
 20
-1.00000000000000E+20
 30
-1.00000000000000E+20
  9
$PLIMMIN
 10
0.0
 20
0.0
  9
$PLIMMAX
 10
12.0
 20
9.0
  9
$UNITMODE
 70
     0
  9
$VISRETAIN
 70
     1
  9
$PLINEGEN
 70
     0
  9
$PSLTSCALE
 70
     1
  9
$TREEDEPTH
 70
  3020
  9
$CMLSTYLE
  2
Standard
  9
$CMLJUST
 70
     0
  9
$CMLSCALE
 40
1.0
  9
$PROXYGRAPHICS
 70
     1
  9
$MEASUREMENT
 70
     1
  9
$CELWEIGHT
370
    -1
  9
$ENDCAPS
280
     0
  9
$JOINSTYLE
280
     0
  9
$LWDISPLAY
290
     0
  9
$INSUNITS
 70
     4
  9
$HYPERLINKBASE
  1

  9
$STYLESHEET
  1

  9
$XEDIT
290
     1
  9
$CEPSNTYPE
380
     0
  9
$PSTYLEMODE
290
     1
  9
$FINGERPRINTGUID
  2
{589FC6B0-E67B-4E10-9A47-F8663CFD5238}
  9
$VERSIONGUID
  2
{FAEB1C32-E019-11D5-929B-00C0DF256EC4}
  9
$EXTNAMES
290
     1
  9
$PSVPSCALE
 40
0.0
  9
$OLESTARTUP
290
     0
  0
ENDSEC
  0
SECTION
  2
CLASSES
  0
CLASS
  1
ACDBDICTIONARYWDFLT
  2
AcDbDictionaryWithDefault
  3
ObjectDBX Classes
 90
        0
280
     0
281
     0
  0
CLASS
  1
VISUALSTYLE
  2
AcDbVisualStyle
  3
ObjectDBX Classes
 90
     4095
280
     0
281
     0
  0
CLASS
  1
MATERIAL
  2
AcDbMaterial
  3
ObjectDBX Classes
 90
     1153
280
     0
281
     0
  0
CLASS
  1
DICTIONARYVAR
  2
AcDbDictionaryVar
  3
ObjectDBX Classes
 90
        0
280
     0
281
     0
  0
CLASS
  1
ACDBPLACEHOLDER
  2
AcDbPlaceHolder
  3
ObjectDBX Classes
 90
        0
280
     0
281
     0
  0
CLASS
  1
LAYOUT
  2
AcDbLayout
  3
ObjectDBX Classes
 90
        0
280
     0
281
     0
  0
ENDSEC
  0
SECTION
  2
TABLES
  0
TABLE
  2
VPORT
  5
8
330
0
100
AcDbSymbolTable
 70
     1
  0
VPORT
  5
29
330
8
100
AcDbSymbolTableRecord
100
AcDbViewportTableRecord
  2
*Active
 70
     0
 10
0.0
 20
0.0
 11
1.0
 21
1.0
 12
143.3551065422052
 22
104.7654790621947
 13
0.0
 23
0.0
 14
0.5
 24
0.5
 15
0.5
 25
0.5
 16
0.0
 26
0.0
 36
1.0
 17
0.0
 27
0.0
 37
0.0
 40
231.0000000000003
 41
1.60267857142857
 42
50.0
 43
0.0
 44
0.0
 50
0.0
 51
0.0
 71
     0
 72
   100
 73
     1
 74
     3
 75
     0
 76
     0
 77
     0
 78
     0
281
     0
 65
     1
110
0.0
120
0.0
130
0.0
111
1.0
121
0.0
131
0.0
112
0.0
122
1.0
132
0.0
 79
     0
146
0.0
  0
ENDTAB
  0
TABLE
  2
LTYPE
  5
5
330
0
100
AcDbSymbolTable
 70
     8
  0
LTYPE
  5
14
330
5
100
AcDbSymbolTableRecord
100
AcDbLinetypeTableRecord
  2
ByBlock
 70
     0
  3

 72
    65
 73
     0
 40
0.0
  0
LTYPE
  5
15
330
5
100
AcDbSymbolTableRecord
100
AcDbLinetypeTableRecord
  2
ByLayer
 70
     0
  3

 72
    65
 73
     0
 40
0.0
  0
LTYPE
  5
16
330
5
100
AcDbSymbolTableRecord
100
AcDbLinetypeTableRecord
  2
Continuous
 70
     0
  3
Solid line
 72
    65
 73
     0
 40
0.0
  0
LTYPE
  5
3F
330
5
100
AcDbSymbolTableRecord
100
AcDbLinetypeTableRecord
  2
DASHED
 70
     0
  3
Dashed
 72
    65
 73
     2
 40
15.0
 49
7.0
 74
     0
 49
-8.0
 74
     0
  0
LTYPE
  5
40
330
5
100
AcDbSymbolTableRecord
100
AcDbLinetypeTableRecord
  2
DOTTED
 70
     0
  3
Dotted
 72
    65
 73
     2
 40
1.0
 49
0.0
 74
     0
 49
-1.0
 74
     0
  0
LTYPE
  5
41
330
5
100
AcDbSymbolTableRecord
100
AcDbLinetypeTableRecord
  2
DOT_CENTER
 70
     0
  3
Dot_Center
 72
    65
 73
     4
 40
14.0
 49
12.0
 74
     0
 49
-1.0
 74
     0
 49
0.0
 74
     0
 49
-1.0
 74
     0
  0
LTYPE
  5
42
330
5
100
AcDbSymbolTableRecord
100
AcDbLinetypeTableRecord
  2
LONG_DASHED
 70
     0
  3
Long_Dashed
 72
    65
 73
     2
 40
15.0
 49
10.0
 74
     0
 49
-5.0
 74
     0
  0
LTYPE
  5
43
330
5
100
AcDbSymbolTableRecord
100
AcDbLinetypeTableRecord
  2
DASH_CENTER
 70
     0
  3
Dash_Center
 72
    65
 73
     4
 40
14.0
 49
11.0
 74
     0
 49
-1.0
 74
     0
 49
1.0
 74
     0
 49
-1.0
 74
     0
  0
LTYPE
  5
44
330
5
100
AcDbSymbolTableRecord
100
AcDbLinetypeTableRecord
  2
PHANTOM
 70
     0
  3
Phantom
 72
    65
 73
     6
 40
13.0
 49
10.0
 74
     0
 49
-1.0
 74
     0
 49
0.0
 74
     0
 49
-1.0
 74
     0
 49
0.0
 74
     0
 49
-1.0
 74
     0
  0
LTYPE
  5
45
330
5
100
AcDbSymbolTableRecord
100
AcDbLinetypeTableRecord
  2
CENTER_DASH_DASH
 70
     0
  3
Center_Dash_Dash
 72
    65
 73
     6
 40
14.0
 49
9.0
 74
     0
 49
-1.0
 74
     0
 49
1.0
 74
     0
 49
-1.0
 74
     0
 49
1.0
 74
     0
 49
-1.0
 74
     0
  0
ENDTAB
  0
TABLE
  2
LAYER
  5
2
330
0
100
AcDbSymbolTable
 70
     2
  0
LAYER
  5
10
330
2
100
AcDbSymbolTableRecord
100
AcDbLayerTableRecord
  2
0
 70
     0
 62
     7
  6
Continuous
370
    -3
390
F
  0
LAYER
  5
46
330
2
100
AcDbSymbolTableRecord
100
AcDbLayerTableRecord
  2
1
 70
     0
 62
     7
  6
Continuous
370
    -3
390
F
  0
ENDTAB
  0
TABLE
  2
STYLE
  5
3
330
0
100
AcDbSymbolTable
 70
     4
  0
STYLE
  5
11
330
3
100
AcDbSymbolTableRecord
100
AcDbTextStyleTableRecord
  2
Standard
 70
     0
 40
0.0
 41
1.0
 50
0.0
 71
     0
 42
0.2
  3
txt
  4

  0
STYLE
  5
9F
330
3
100
AcDbSymbolTableRecord
100
AcDbTextStyleTableRecord
  2
CONVERTER_11
 70
     0
 40
0.0
 41
1.2
 50
0.0
 71
     0
 42
0.2
  3
ARIAL.TTF
  4

  0
STYLE
  5
A4
330
3
100
AcDbSymbolTableRecord
100
AcDbTextStyleTableRecord
  2
CONVERTER_12
 70
     0
 40
0.0
 41
1.38
 50
0.0
 71
     0
 42
0.2
  3
ARIAL.TTF
  4

  0
STYLE
  5
4ED
330
3
100
AcDbSymbolTableRecord
100
AcDbTextStyleTableRecord
  2
CONVERTER_13
 70
     0
 40
0.0
 41
0.95
 50
0.0
 71
     0
 42
0.2
  3
simplex.shx
  4

  0
ENDTAB
  0
TABLE
  2
VIEW
  5
6
330
0
100
AcDbSymbolTable
 70
     0
  0
ENDTAB
  0
TABLE
  2
UCS
  5
7
330
0
100
AcDbSymbolTable
 70
     0
  0
ENDTAB
  0
TABLE
  2
APPID
  5
9
330
0
100
AcDbSymbolTable
 70
     1
  0
APPID
  5
12
330
9
100
AcDbSymbolTableRecord
100
AcDbRegAppTableRecord
  2
ACAD
 70
     0
  0
ENDTAB
  0
TABLE
  2
DIMSTYLE
  5
A
330
0
100
AcDbSymbolTable
 70
     5
100
AcDbDimStyleTable
  0
DIMSTYLE
105
27
330
A
100
AcDbSymbolTableRecord
100
AcDbDimStyleTableRecord
  2
Standard
 70
     0
178
     0
340
11
  0
DIMSTYLE
105
4F8
102
{ACAD_REACTORS
330
4F9
102
}
330
A
100
AcDbSymbolTableRecord
100
AcDbDimStyleTableRecord
  2
ME10_DIM_10
 70
     0
 41
3.0
 42
0.5
 44
1.0
 73
     0
 74
     0
 77
     1
 78
     8
140
3.0
147
2.0
172
     1
173
     1
174
     1
175
     1
176
     2
177
     2
271
     2
178
     4
271
     2
340
4ED
  0
DIMSTYLE
105
503
102
{ACAD_REACTORS
330
504
102
}
330
A
100
AcDbSymbolTableRecord
100
AcDbDimStyleTableRecord
  2
ME10_DIM_11
 70
     0
 41
3.0
 42
0.5
 44
1.0
 73
     0
 74
     0
 77
     1
 78
     8
140
3.0
147
2.0
172
     1
173
     1
174
     1
175
     1
176
     2
177
     2
271
     2
178
     4
271
     2
340
4ED
  0
DIMSTYLE
105
50E
102
{ACAD_REACTORS
330
50F
102
}
330
A
100
AcDbSymbolTableRecord
100
AcDbDimStyleTableRecord
  2
ME10_DIM_12
 70
     0
 41
3.0
 42
0.5
 44
1.0
 73
     0
 74
     0
 77
     1
 78
     8
140
3.0
147
2.0
172
     1
173
     1
174
     1
175
     1
176
     2
177
     2
271
     2
178
     4
271
     2
340
4ED
  0
DIMSTYLE
105
519
102
{ACAD_REACTORS
330
51A
102
}
330
A
100
AcDbSymbolTableRecord
100
AcDbDimStyleTableRecord
  2
ME10_DIM_13
 70
     0
 41
3.0
 42
0.5
 44
1.0
 73
     0
 74
     0
 77
     1
 78
     8
140
3.0
147
2.0
172
     1
173
     1
174
     1
175
     1
176
     2
177
     2
271
     2
178
     4
271
     2
340
4ED
  0
ENDTAB
  0
TABLE
  2
BLOCK_RECORD
  5
1
330
0
100
AcDbSymbolTable
 70
     8
  0
BLOCK_RECORD
  5
1F
330
1
100
AcDbSymbolTableRecord
100
AcDbBlockTableRecord
  2
*Model_Space
340
22
  0
BLOCK_RECORD
  5
1B
330
1
100
AcDbSymbolTableRecord
100
AcDbBlockTableRecord
  2
*Paper_Space
340
1E
  0
BLOCK_RECORD
  5
23
330
1
100
AcDbSymbolTableRecord
100
AcDbBlockTableRecord
  2
*Paper_Space0
340
26
  0
BLOCK_RECORD
  5
47
330
1
100
AcDbSymbolTableRecord
100
AcDbBlockTableRecord
  2
_formato_A4
340
0
102
{BLKREFS
331
4B
102
}
  0
BLOCK_RECORD
  5
4A
330
1
100
AcDbSymbolTableRecord
100
AcDbBlockTableRecord
  2
A4_oriz
340
0
102
{BLKREFS
331
51
102
}
  0
BLOCK_RECORD
  5
4E
330
1
100
AcDbSymbolTableRecord
100
AcDbBlockTableRecord
  2
MFVN_16_G32_4
340
0
102
{BLKREFS
331
52
102
}
  0
BLOCK_RECORD
  5
4EF
330
1
100
AcDbSymbolTableRecord
100
AcDbBlockTableRecord
  2
*D4
340
0
  0
BLOCK_RECORD
  5
4FA
330
1
100
AcDbSymbolTableRecord
100
AcDbBlockTableRecord
  2
*D5
340
0
  0
BLOCK_RECORD
  5
505
330
1
100
AcDbSymbolTableRecord
100
AcDbBlockTableRecord
  2
*D6
340
0
  0
BLOCK_RECORD
  5
510
330
1
100
AcDbSymbolTableRecord
100
AcDbBlockTableRecord
  2
*D7
340
0
  0
ENDTAB
  0
ENDSEC
  0
SECTION
  2
BLOCKS
  0
BLOCK
  5
20
330
1F
100
AcDbEntity
  8
0
100
AcDbBlockBegin
  2
*Model_Space
 70
     0
 10
0.0
 20
0.0
 30
0.0
  3
*Model_Space
  1

  0
ENDBLK
  5
21
330
1F
100
AcDbEntity
  8
0
100
AcDbBlockEnd
  0
BLOCK
  5
1C
330
1B
100
AcDbEntity
 67
     1
  8
0
100
AcDbBlockBegin
  2
*Paper_Space
 70
     0
 10
0.0
 20
0.0
 30
0.0
  3
*Paper_Space
  1

  0
ENDBLK
  5
1D
330
1B
100
AcDbEntity
 67
     1
  8
0
100
AcDbBlockEnd
  0
BLOCK
  5
24
330
23
100
AcDbEntity
  8
0
100
AcDbBlockBegin
  2
*Paper_Space0
 70
     0
 10
0.0
 20
0.0
 30
0.0
  3
*Paper_Space0
  1

  0
ENDBLK
  5
25
330
23
100
AcDbEntity
  8
0
100
AcDbBlockEnd
  0
BLOCK
  5
48
330
47
100
AcDbEntity
  8
0
100
AcDbBlockBegin
  2
_formato_A4
 70
     0
 10
-857.0458408438146
 20
25.32689400793408
 30
0.0
  3
_formato_A4
  1

  0
LINE
  5
53
330
47
100
AcDbEntity
  8
1
  6
Continuous
 62
     7
100
AcDbLine
 10
-1046.045840843815
 20
30.32689400793397
 30
0.0
 11
-1046.045840843815
 21
65.32689400793407
 31
0.0
  0
LINE
  5
54
330
47
100
AcDbEntity
  8
1
  6
Continuous
 62
     7
100
AcDbLine
 10
-1046.045840843815
 20
45.32689400793407
 30
0.0
 11
-862.0458408438146
 21
45.32689400793407
 31
0.0
  0
LINE
  5
55
330
47
100
AcDbEntity
  8
1
  6
Continuous
 62
     7
100
AcDbLine
 10
-1149.045840843815
 20
214.3268940079342
 30
0.0
 11
-1149.045840843815
 21
30.32689400793408
 31
0.0
  0
LINE
  5
56
330
47
100
AcDbEntity
  8
1
  6
Continuous
 62
     7
100
AcDbLine
 10
-1021.045840843815
 20
60.32689400793407
 30
0.0
 11
-1021.045840843815
 21
65.32689400793407
 31
0.0
  0
LINE
  5
57
330
47
100
AcDbEntity
  8
1
  6
Continuous
 62
     7
100
AcDbLine
 10
-1039.045840843815
 20
60.32689400793407
 30
0.0
 11
-1039.045840843815
 21
65.32689400793407
 31
0.0
  0
LINE
  5
58
330
47
100
AcDbEntity
  8
1
  6
Continuous
 62
     7
100
AcDbLine
 10
-1046.045840843815
 20
65.32689400793407
 30
0.0
 11
-862.0458408438146
 21
65.32689400793407
 31
0.0
  0
LINE
  5
59
330
47
100
AcDbEntity
  8
1
  6
Continuous
 62
     7
100
AcDbLine
 10
-1021.045840843815
 20
55.32689400793407
 30
0.0
 11
-1021.045840843815
 21
60.32689400793407
 31
0.0
  0
LINE
  5
5A
330
47
100
AcDbEntity
  8
1
  6
Continuous
 62
     7
100
AcDbLine
 10
-1039.045840843815
 20
55.32689400793407
 30
0.0
 11
-1039.045840843815
 21
60.32689400793407
 31
0.0
  0
LINE
  5
5B
330
47
100
AcDbEntity
  8
1
  6
Continuous
 62
     7
100
AcDbLine
 10
-1046.045840843815
 20
60.32689400793407
 30
0.0
 11
-862.0458408438146
 21
60.32689400793407
 31
0.0
  0
LINE
  5
5C
330
47
100
AcDbEntity
  8
1
  6
Continuous
 62
     7
100
AcDbLine
 10
-1021.045840843815
 20
50.32689400793407
 30
0.0
 11
-1021.045840843815
 21
55.32689400793407
 31
0.0
  0
LINE
  5
5D
330
47
100
AcDbEntity
  8
1
  6
Continuous
 62
     7
100
AcDbLine
 10
-1039.045840843815
 20
50.32689400793407
 30
0.0
 11
-1039.045840843815
 21
55.32689400793407
 31
0.0
  0
LINE
  5
5E
330
47
100
AcDbEntity
  8
1
  6
Continuous
 62
     7
100
AcDbLine
 10
-1046.045840843815
 20
55.32689400793407
 30
0.0
 11
-862.0458408438146
 21
55.32689400793407
 31
0.0
  0
LINE
  5
5F
330
47
100
AcDbEntity
  8
1
  6
Continuous
 62
     7
100
AcDbLine
 10
-1021.045840843815
 20
45.32689400793407
 30
0.0
 11
-1021.045840843815
 21
50.32689400793407
 31
0.0
  0
LINE
  5
60
330
47
100
AcDbEntity
  8
1
  6
Continuous
 62
     7
100
AcDbLine
 10
-1039.045840843815
 20
45.32689400793407
 30
0.0
 11
-1039.045840843815
 21
50.32689400793407
 31
0.0
  0
LINE
  5
61
330
47
100
AcDbEntity
  8
1
  6
Continuous
 62
     7
100
AcDbLine
 10
-1046.045840843815
 20
50.32689400793407
 30
0.0
 11
-862.0458408438146
 21
50.32689400793407
 31
0.0
  0
LINE
  5
62
102
{ACAD_REACTORS
330
AA
102
}
330
47
100
AcDbEntity
  8
1
  6
Continuous
 62
     7
100
AcDbLine
 10
-871.2029660039088
 20
35.88489608831441
 30
0.0
 11
-872.5362993372416
 21
35.11566531908382
 31
0.0
  0
LINE
  5
63
102
{ACAD_REACTORS
330
AA
102
}
330
47
100
AcDbEntity
  8
1
  6
Continuous
 62
     7
100
AcDbLine
 10
-872.3695401550717
 20
35.98153054058203
 30
0.0
 11
-871.5361143062348
 21
36.46235314568032
 31
0.0
  0
LINE
  5
64
102
{ACAD_REACTORS
330
AA
102
}
330
47
100
AcDbEntity
  8
1
  6
Continuous
 62
     7
100
AcDbLine
 10
-872.3695401550717
 20
37.49356067460071
 30
0.0
 11
-872.3695401550717
 21
35.98153054058203
 31
0.0
  0
LINE
  5
65
102
{ACAD_REACTORS
330
AA
102
}
330
47
100
AcDbEntity
  8
1
  6
Continuous
 62
     7
100
AcDbLine
 10
-871.3695401550717
 20
37.49356067460071
 30
0.0
 11
-872.3695401550717
 21
37.49356067460071
 31
0.0
  0
LINE
  5
66
102
{ACAD_REACTORS
330
AA
102
}
330
47
100
AcDbEntity
  8
1
  6
Continuous
 62
     7
100
AcDbLine
 10
-872.3695401550717
 20
38.16022734126734
 30
0.0
 11
-871.3695401550717
 21
38.16022734126734
 31
0.0
  0
LINE
  5
67
102
{ACAD_REACTORS
330
AA
102
}
330
47
100
AcDbEntity
  8
1
  6
Continuous
 62
     7
100
AcDbLine
 10
-872.3695401550717
 20
39.67225747528602
 30
0.0
 11
-872.3695401550717
 21
38.16022734126734
 31
0.0
  0
LINE
  5
68
102
{ACAD_REACTORS
330
AA
102
}
330
47
100
AcDbEntity
  8
1
  6
Continuous
 62
     7
100
AcDbLine
 10
-871.5361143062348
 20
39.19143487018785
 30
0.0
 11
-872.3695401550717
 21
39.67225747528602
 31
0.0
  0
LINE
  5
69
102
{ACAD_REACTORS
330
AA
102
}
330
47
100
AcDbEntity
  8
1
  6
Continuous
 62
     7
100
AcDbLine
 10
-872.5362993372416
 20
40.53812269678434
 30
0.0
 11
-871.2029660039088
 21
39.76889192755352
 31
0.0
  0
LINE
  5
6A
102
{ACAD_REACTORS
330
AB
102
}
330
47
100
AcDbEntity
  8
1
  6
Continuous
 62
     7
100
AcDbLine
 10
-879.7028734884057
 20
36.17362461699731
 30
0.0
 11
-879.7028734884057
 21
39.48016339887074
 31
0.0
  0
LINE
  5
6B
102
{ACAD_REACTORS
330
AB
102
}
330
47
100
AcDbEntity
  8
1
  6
Continuous
 62
     7
100
AcDbLine
 10
-879.0362068217387
 20
36.36614592519737
 30
0.0
 11
-879.0362068217387
 21
36.17362461699731
 31
0.0
  0
LINE
  5
6C
102
{ACAD_REACTORS
330
AB
102
}
330
47
100
AcDbEntity
  8
1
  6
Continuous
 62
     7
100
AcDbLine
 10
-879.0362068217387
 20
39.48016339887074
 30
0.0
 11
-879.0362068217387
 21
36.36614592519737
 31
0.0
  0
LINE
  5
6D
102
{ACAD_REACTORS
330
AC
102
}
330
47
100
AcDbEntity
  8
1
  6
Continuous
 62
     7
100
AcDbLine
 10
-875.8694476395688
 20
33.76951147292989
 30
0.0
 11
-878.0360217907316
 21
35.01945809860099
 31
0.0
  0
LINE
  5
6E
102
{ACAD_REACTORS
330
AC
102
}
330
47
100
AcDbEntity
  8
1
  6
Continuous
 62
     7
100
AcDbLine
 10
-877.7028734884057
 20
35.59691515596678
 30
0.0
 11
-875.5362993372416
 21
34.34696853029568
 31
0.0
  0
LINE
  5
6F
102
{ACAD_REACTORS
330
AC
102
}
330
47
100
AcDbEntity
  8
1
  6
Continuous
 62
     7
100
AcDbLine
 10
-877.7028734884057
 20
40.24939416810145
 30
0.0
 11
-877.7028734884057
 21
35.59691515596678
 31
0.0
  0
LINE
  5
70
102
{ACAD_REACTORS
330
AC
102
}
330
47
100
AcDbEntity
  8
1
  6
Continuous
 62
     7
100
AcDbLine
 10
-878.3695401550717
 20
35.59691515596666
 30
0.0
 11
-878.3695401550717
 21
40.24939416810145
 31
0.0
  0
LINE
  5
71
102
{ACAD_REACTORS
330
AD
102
}
330
47
100
AcDbEntity
  8
1
  6
Continuous
 62
     7
100
AcDbLine
 10
-874.1973071720288
 20
41.19059442620637
 30
0.0
 11
-875.3695401550717
 21
39.16022734126734
 31
0.0
  0
LINE
  5
72
102
{ACAD_REACTORS
330
AD
102
}
330
47
100
AcDbEntity
  8
1
  6
Continuous
 62
     7
100
AcDbLine
 10
-873.7028734884057
 20
34.63516307853588
 30
0.0
 11
-873.7028734884057
 21
41.05811131996865
 31
0.0
  0
LINE
  5
73
102
{ACAD_REACTORS
330
AD
102
}
330
47
100
AcDbEntity
  8
1
  6
Continuous
 62
     7
100
AcDbLine
 10
-874.3695401550717
 20
37.82689400793407
 30
0.0
 11
-874.3695401550717
 21
34.63516307853588
 31
0.0
  0
LINE
  5
74
102
{ACAD_REACTORS
330
AD
102
}
330
47
100
AcDbEntity
  8
1
  6
Continuous
 62
     7
100
AcDbLine
 10
-876.3695401550717
 20
36.17447908056698
 30
0.0
 11
-876.3695401550717
 21
37.82689400793407
 31
0.0
  0
LINE
  5
75
102
{ACAD_REACTORS
330
AD
102
}
330
47
100
AcDbEntity
  8
1
  6
Continuous
 62
     7
100
AcDbLine
 10
-877.0362068217387
 20
37.82689400793407
 30
0.0
 11
-877.0362068217387
 21
36.17447908056698
 31
0.0
  0
LINE
  5
76
102
{ACAD_REACTORS
330
AD
102
}
330
47
100
AcDbEntity
  8
1
  6
Continuous
 62
     7
100
AcDbLine
 10
-876.5417731381158
 20
41.19059442620637
 30
0.0
 11
-875.3695401550717
 21
39.16022734126734
 31
0.0
  0
LINE
  5
77
102
{ACAD_REACTORS
330
AD
102
}
330
47
100
AcDbEntity
  8
1
  6
Continuous
 62
     7
100
AcDbLine
 10
-877.0362068217387
 20
37.82689400793407
 30
0.0
 11
-877.0362068217387
 21
41.05811131996865
 31
0.0
  0
LINE
  5
78
330
47
100
AcDbEntity
  8
1
  6
Continuous
 62
     7
100
AcDbLine
 10
-875.3695401550717
 20
32.82689400793407
 30
0.0
 11
-883.7859754302137
 21
37.68252974359263
 31
0.0
  0
LINE
  5
79
330
47
100
AcDbEntity
  8
1
  6
Continuous
 62
     7
100
AcDbLine
 10
-866.9531048799308
 20
37.68252974359263
 30
0.0
 11
-875.3695401550717
 21
32.82689400793407
 31
0.0
  0
LINE
  5
7A
330
47
100
AcDbEntity
  8
1
  6
Continuous
 62
     7
100
AcDbLine
 10
-875.3695401550717
 20
42.82689400793407
 30
0.0
 11
-866.9531048799308
 21
37.97125827227541
 31
0.0
  0
LINE
  5
7B
330
47
100
AcDbEntity
  8
1
  6
Continuous
 62
     7
100
AcDbLine
 10
-883.7859754302137
 20
37.97125827227541
 30
0.0
 11
-875.3695401550717
 21
42.82689400793407
 31
0.0
  0
LINE
  5
7C
102
{ACAD_REACTORS
330
AD
102
}
330
47
100
AcDbEntity
  8
1
  6
Continuous
 62
     7
100
AcDbLine
 10
-876.3695401550717
 20
39.55894481550291
 30
0.0
 11
-876.3695401550717
 21
37.82689400793407
 31
0.0
  0
LINE
  5
7D
102
{ACAD_REACTORS
330
AD
102
}
330
47
100
AcDbEntity
  8
1
  6
Continuous
 62
     7
100
AcDbLine
 10
-875.5138777223697
 20
38.07689400793407
 30
0.0
 11
-876.3695401550717
 21
39.55894481550291
 31
0.0
  0
LINE
  5
7E
102
{ACAD_REACTORS
330
AD
102
}
330
47
100
AcDbEntity
  8
1
  6
Continuous
 62
     7
100
AcDbLine
 10
-874.3695401550717
 20
39.55894481550291
 30
0.0
 11
-875.2252025877747
 21
38.07689400793407
 31
0.0
  0
LINE
  5
7F
102
{ACAD_REACTORS
330
AD
102
}
330
47
100
AcDbEntity
  8
1
  6
Continuous
 62
     7
100
AcDbLine
 10
-874.3695401550717
 20
37.82689400793407
 30
0.0
 11
-874.3695401550717
 21
39.55894481550291
 31
0.0
  0
LINE
  5
80
102
{ACAD_REACTORS
330
AA
102
}
330
47
100
AcDbEntity
  8
1
  6
Continuous
 62
     7
100
AcDbLine
 10
-873.0362068217387
 20
35.40439384776671
 30
0.0
 11
-873.0362068217387
 21
40.24939416810145
 31
0.0
  0
LINE
  5
81
330
47
100
AcDbEntity
  8
1
  6
Continuous
 62
     7
100
AcDbLine
 10
-862.0458408438146
 20
214.3268940079342
 30
0.0
 11
-1149.045840843815
 21
214.3268940079342
 31
0.0
  0
LINE
  5
82
330
47
100
AcDbEntity
  8
1
  6
Continuous
 62
     7
100
AcDbLine
 10
-862.0458408438146
 20
30.32689400793408
 30
0.0
 11
-862.0458408438146
 21
214.3268940079342
 31
0.0
  0
LINE
  5
83
330
47
100
AcDbEntity
  8
1
  6
Continuous
 62
     7
100
AcDbLine
 10
-1149.045840843815
 20
30.32689400793408
 30
0.0
 11
-862.0458408438146
 21
30.32689400793408
 31
0.0
  0
LINE
  5
84
330
47
100
AcDbEntity
  8
1
  6
Continuous
 62
     7
100
AcDbLine
 10
-857.0458408438146
 20
25.32689400793408
 30
0.0
 11
-857.0458408438146
 21
235.3268940079343
 31
0.0
  0
LINE
  5
85
330
47
100
AcDbEntity
  8
1
  6
Continuous
 62
     7
100
AcDbLine
 10
-857.0458408438146
 20
235.3268940079343
 30
0.0
 11
-1154.045840843815
 21
235.3268940079343
 31
0.0
  0
LINE
  5
86
330
47
100
AcDbEntity
  8
1
  6
Continuous
 62
     7
100
AcDbLine
 10
-1154.045840843815
 20
235.3268940079343
 30
0.0
 11
-1154.045840843815
 21
25.32689400793408
 31
0.0
  0
LINE
  5
87
330
47
100
AcDbEntity
  8
1
  6
Continuous
 62
     7
100
AcDbLine
 10
-1154.045840843815
 20
25.32689400793408
 30
0.0
 11
-857.0458408438146
 21
25.32689400793408
 31
0.0
  0
LINE
  5
88
330
47
100
AcDbEntity
  8
1
  6
Continuous
 62
     7
100
AcDbLine
 10
-1005.545840843815
 20
235.3268940079343
 30
0.0
 11
-1005.545840843815
 21
220.3268940079343
 31
0.0
  0
LINE
  5
89
330
47
100
AcDbEntity
  8
1
  6
Continuous
 62
     7
100
AcDbLine
 10
-1016.045840843815
 20
45.32689400793407
 30
0.0
 11
-1016.045840843815
 21
30.32689400793408
 31
0.0
  0
LINE
  5
8A
330
47
100
AcDbEntity
  8
1
  6
Continuous
 62
     7
100
AcDbLine
 10
-888.6932394663288
 20
45.32689400793407
 30
0.0
 11
-888.6932394663288
 21
30.32689400793408
 31
0.0
  0
LINE
  5
8B
330
47
100
AcDbEntity
  8
1
  6
Continuous
 62
     7
100
AcDbLine
 10
-906.0458408438146
 20
45.32689400793407
 30
0.0
 11
-906.0458408438146
 21
30.32689400793408
 31
0.0
  0
LINE
  5
8C
330
47
100
AcDbEntity
  8
1
  6
Continuous
 62
     7
100
AcDbLine
 10
-1046.045840843815
 20
40.32689400793397
 30
0.0
 11
-1016.045840843815
 21
40.32689400793397
 31
0.0
  0
LINE
  5
8D
330
47
100
AcDbEntity
  8
1
  6
Continuous
 62
     7
100
AcDbLine
 10
-1046.045840843815
 20
35.32689400793394
 30
0.0
 11
-1016.045840843815
 21
35.32689400793394
 31
0.0
  0
ARC
  5
8E
102
{ACAD_REACTORS
330
AA
102
}
330
47
100
AcDbEntity
  8
1
  6
Continuous
 62
     7
100
AcDbCircle
 10
-871.3695401550717
 20
36.17362461699731
 30
0.0
 40
0.3333333333332005
100
AcDbArc
 50
299.9816393687998
 51
119.9816393688239
  0
ARC
  5
8F
102
{ACAD_REACTORS
330
AA
102
}
330
47
100
AcDbEntity
  8
1
  6
Continuous
 62
     7
100
AcDbCircle
 10
-871.3695401550717
 20
37.82689400793407
 30
0.0
 40
0.3333333333333641
100
AcDbArc
 50
270.0
 51
90.0
  0
ARC
  5
90
102
{ACAD_REACTORS
330
AA
102
}
330
47
100
AcDbEntity
  8
1
  6
Continuous
 62
     7
100
AcDbCircle
 10
-871.3695401550717
 20
39.48016339887074
 30
0.0
 40
0.3333333333333079
100
AcDbArc
 50
240.0183606311657
 51
60.01836063119038
  0
ARC
  5
91
102
{ACAD_REACTORS
330
AB
102
}
330
47
100
AcDbEntity
  8
1
  6
Continuous
 62
     7
100
AcDbCircle
 10
-879.3695401550717
 20
36.17362461699731
 30
0.0
 40
0.3333333333339397
100
AcDbArc
 50
180.0
 51
0.0
  0
ARC
  5
92
102
{ACAD_REACTORS
330
AB
102
}
330
47
100
AcDbEntity
  8
1
  6
Continuous
 62
     7
100
AcDbCircle
 10
-879.3695401550717
 20
39.48016339887074
 30
0.0
 40
0.3333333333330302
100
AcDbArc
 50
0.0
 51
180.0
  0
ARC
  5
93
102
{ACAD_REACTORS
330
AC
102
}
330
47
100
AcDbEntity
  8
1
  6
Continuous
 62
     7
100
AcDbCircle
 10
-875.7028734884057
 20
34.05824000161279
 30
0.0
 40
0.3333333333333141
100
AcDbArc
 50
240.0183606311663
 51
60.01836063103087
  0
ARC
  5
94
102
{ACAD_REACTORS
330
AC
102
}
330
47
100
AcDbEntity
  8
1
  6
Continuous
 62
     7
100
AcDbCircle
 10
-878.0362068217387
 20
40.24939416810145
 30
0.0
 40
0.3333333333330302
100
AcDbArc
 50
0.0
 51
180.0
  0
ARC
  5
95
102
{ACAD_REACTORS
330
AD
102
}
330
47
100
AcDbEntity
  8
1
  6
Continuous
 62
     7
100
AcDbCircle
 10
-873.9678397008806
 20
41.05811131996865
 30
0.0
 40
0.2649662124749739
100
AcDbArc
 50
0.0
 51
149.9999999999879
  0
ARC
  5
96
102
{ACAD_REACTORS
330
AD
102
}
330
47
100
AcDbEntity
  8
1
  6
Continuous
 62
     7
100
AcDbCircle
 10
-874.0362068217387
 20
34.63516307853588
 30
0.0
 40
0.3333333333330302
100
AcDbArc
 50
180.0
 51
0.0
  0
ARC
  5
97
102
{ACAD_REACTORS
330
AD
102
}
330
47
100
AcDbEntity
  8
1
  6
Continuous
 62
     7
100
AcDbCircle
 10
-876.7028734884057
 20
36.17447908056698
 30
0.0
 40
0.3333333333330302
100
AcDbArc
 50
180.0
 51
0.0
  0
ARC
  5
98
102
{ACAD_REACTORS
330
AD
102
}
330
47
100
AcDbEntity
  8
1
  6
Continuous
 62
     7
100
AcDbCircle
 10
-876.7712406092637
 20
41.05811131996865
 30
0.0
 40
0.264966212475135
100
AcDbArc
 50
30.00000000003666
 51
180.0
  0
ARC
  5
99
102
{ACAD_REACTORS
330
AA
102
}
330
47
100
AcDbEntity
  8
1
  6
Continuous
 62
     7
100
AcDbCircle
 10
-872.7028734884057
 20
35.40439384776671
 30
0.0
 40
0.3333333333330302
100
AcDbArc
 50
180.0
 51
299.9816393689691
  0
ARC
  5
9A
102
{ACAD_REACTORS
330
AA
102
}
330
47
100
AcDbEntity
  8
1
  6
Continuous
 62
     7
100
AcDbCircle
 10
-872.7028734884057
 20
40.24939416810145
 30
0.0
 40
0.3333333333337624
100
AcDbArc
 50
60.01836063103026
 51
180.0
  0
ARC
  5
9B
330
47
100
AcDbEntity
  8
1
  6
Continuous
 62
     7
100
AcDbCircle
 10
-867.0363919555118
 20
37.82689400793407
 30
0.0
 40
0.1666666666663668
100
AcDbArc
 50
299.9816393686656
 51
60.01836063131725
  0
ARC
  5
9C
330
47
100
AcDbEntity
  8
1
  6
Continuous
 62
     7
100
AcDbCircle
 10
-883.7026883546318
 20
37.82689400793407
 30
0.0
 40
0.1666666666667352
100
AcDbArc
 50
119.9816393689536
 51
240.0183606310635
  0
ARC
  5
9D
102
{ACAD_REACTORS
330
AC
102
}
330
47
100
AcDbEntity
  8
1
  6
Continuous
 62
     7
100
AcDbCircle
 10
-877.7028734884057
 20
35.59691515596678
 30
0.0
 40
0.6666666666660603
100
AcDbArc
 50
180.0000000000097
 51
240.0183606311829
  0
ARC
  5
9E
102
{ACAD_REACTORS
330
AD
102
}
330
47
100
AcDbEntity
  8
1
  6
Continuous
 62
     7
100
AcDbCircle
 10
-875.3695401550717
 20
38.16022734126734
 30
0.0
 40
0.1666666666671054
100
AcDbArc
 50
209.9999999998856
 51
329.999999999958
  0
MTEXT
  5
A0
330
47
100
AcDbEntity
  8
1
 62
     7
100
AcDbMText
 10
-897.3695401550717
 20
35.38753342869013
 30
0.0
 40
4.5
 41
0.0
 71
     5
 72
     1
  1
1:1
  7
CONVERTER_11
 73
     1
 44
1.32052821128451
  0
MTEXT
  5
A1
330
47
100
AcDbEntity
  8
1
 62
     7
100
AcDbMText
 10
-897.3695401550717
 20
41.58753342869006
 30
0.0
 40
3.0
 41
0.0
 71
     5
 72
     1
  1
Scale
  7
CONVERTER_11
 73
     1
 44
1.32052821128451
  0
MTEXT
  5
A2
330
47
100
AcDbEntity
  8
1
 62
     7
100
AcDbMText
 10
-1014.769540155072
 20
37.82689400793407
 30
0.0
 40
4.5
 41
0.0
 71
     4
 72
     1
  1
MHVN 16 G32\PHood with levers, top entry M32 - LS TYPE
  7
CONVERTER_11
 73
     1
 44
0.90036014405762
  0
MTEXT
  5
A3
330
47
100
AcDbEntity
  8
1
 62
     7
100
AcDbMText
 10
-1002.545840843815
 20
219.3268940079343
 30
0.0
 40
4.0
 41
0.0
 71
     5
 72
     1
  1
Diritti riservati      All rights reserved
  7
CONVERTER_11
 73
     1
 44
1.32052821128451
  0
MTEXT
  5
A5
330
47
100
AcDbEntity
  8
1
 62
     7
100
AcDbMText
 10
-1031.045840843815
 20
42.82689400793402
 30
0.0
 40
2.5
 41
0.0
 71
     5
 72
     1
  1
dimensions in mm
  7
CONVERTER_12
 73
     1
 44
0.60024009603842
  0
MTEXT
  5
A6
330
47
100
AcDbEntity
  8
1
 62
     7
100
AcDbMText
 10
-1045.045840843815
 20
37.82689400793396
 30
0.0
 40
3.0
 41
0.0
 71
     4
 72
     1
  1
Date
  7
CONVERTER_11
 73
     1
 44
1.32052821128451
  0
MTEXT
  5
A7
330
47
100
AcDbEntity
  8
1
 62
     7
100
AcDbMText
 10
-1034.445840843815
 20
37.82689400793396
 30
0.0
 40
3.0
 41
0.0
 71
     4
 72
     1
  1
20/06/14
  7
CONVERTER_11
 73
     1
 44
1.32052821128451
  0
MTEXT
  5
A8
330
47
100
AcDbEntity
  8
1
 62
     7
100
AcDbMText
 10
-1045.045840843815
 20
32.82689400793396
 30
0.0
 40
3.0
 41
0.0
 71
     4
 72
     1
  1
Sign.
  7
CONVERTER_11
 73
     1
 44
1.32052821128451
  0
MTEXT
  5
A9
330
47
100
AcDbEntity
  8
1
 62
     7
100
AcDbMText
 10
-1034.445840843815
 20
32.82689400793396
 30
0.0
 40
3.0
 41
0.0
 71
     4
 72
     1
  1
Pezzimenti
  7
CONVERTER_11
 73
     1
 44
1.32052821128451
  0
HATCH
  5
AA
330
47
100
AcDbEntity
  8
1
  6
Continuous
 62
     7
100
AcDbHatch
 10
0.0
 20
0.0
 30
0.0
210
0.0
220
0.0
230
1.0
  2
SOLID
 70
     1
 71
     1
 91
        1
 92
        1
 93
       14
 72
     2
 10
-872.7028734884057
 20
40.24939416810145
 40
0.3333333333337624
 50
60.01836063103026
 51
180.0
 73
     1
 72
     1
 10
-873.0362068217387
 20
40.24939416810145
 11
-873.0362068217387
 21
35.40439384776671
 72
     2
 10
-872.7028734884057
 20
35.40439384776671
 40
0.3333333333330302
 50
180.0
 51
299.9816393689691
 73
     1
 72
     1
 10
-872.5362993372416
 20
35.11566531908382
 11
-871.2029660039088
 21
35.88489608831441
 72
     2
 10
-871.3695401550717
 20
36.17362461699731
 40
0.3333333333332005
 50
299.9816393687998
 51
479.9816393688239
 73
     1
 72
     1
 10
-871.5361143062348
 20
36.46235314568032
 11
-872.3695401550717
 21
35.98153054058203
 72
     1
 10
-872.3695401550717
 20
35.98153054058203
 11
-872.3695401550717
 21
37.49356067460071
 72
     1
 10
-872.3695401550717
 20
37.49356067460071
 11
-871.3695401550717
 21
37.49356067460071
 72
     2
 10
-871.3695401550717
 20
37.82689400793407
 40
0.3333333333333641
 50
270.0
 51
450.0
 73
     1
 72
     1
 10
-871.3695401550717
 20
38.16022734126734
 11
-872.3695401550717
 21
38.16022734126734
 72
     1
 10
-872.3695401550717
 20
38.16022734126734
 11
-872.3695401550717
 21
39.67225747528602
 72
     1
 10
-872.3695401550717
 20
39.67225747528602
 11
-871.5361143062348
 21
39.19143487018785
 72
     2
 10
-871.3695401550717
 20
39.48016339887074
 40
0.3333333333333079
 50
240.0183606311657
 51
420.0183606311903
 73
     1
 72
     1
 10
-871.2029660039088
 20
39.76889192755352
 11
-872.5362993372416
 21
40.53812269678434
 97
       14
330
90
330
68
330
67
330
66
330
8F
330
65
330
64
330
63
330
8E
330
62
330
99
330
80
330
9A
330
69
 75
     0
 76
     1
 98
        1
 10
0.0
 20
0.0
  0
HATCH
  5
AB
330
47
100
AcDbEntity
  8
1
  6
Continuous
 62
     7
100
AcDbHatch
 10
0.0
 20
0.0
 30
0.0
210
0.0
220
0.0
230
1.0
  2
SOLID
 70
     1
 71
     1
 91
        1
 92
        1
 93
        5
 72
     2
 10
-879.3695401550717
 20
39.48016339887074
 40
0.3333333333330302
 50
0.0
 51
180.0
 73
     1
 72
     1
 10
-879.7028734884057
 20
39.48016339887074
 11
-879.7028734884057
 21
36.17362461699731
 72
     2
 10
-879.3695401550717
 20
36.17362461699731
 40
0.3333333333339397
 50
180.0
 51
360.0
 73
     1
 72
     1
 10
-879.0362068217387
 20
36.17362461699731
 11
-879.0362068217387
 21
36.36614592519737
 72
     1
 10
-879.0362068217387
 20
36.36614592519737
 11
-879.0362068217387
 21
39.48016339887074
 97
        5
330
92
330
6A
330
91
330
6B
330
6C
 75
     0
 76
     1
 98
        1
 10
0.0
 20
0.0
  0
HATCH
  5
AC
330
47
100
AcDbEntity
  8
1
  6
Continuous
 62
     7
100
AcDbHatch
 10
0.0
 20
0.0
 30
0.0
210
0.0
220
0.0
230
1.0
  2
SOLID
 70
     1
 71
     1
 91
        1
 92
        1
 93
        7
 72
     2
 10
-878.0362068217387
 20
40.24939416810145
 40
0.3333333333330302
 50
0.0
 51
180.0
 73
     1
 72
     1
 10
-878.3695401550717
 20
40.24939416810145
 11
-878.3695401550717
 21
35.59691515596666
 72
     2
 10
-877.7028734884057
 20
35.59691515596678
 40
0.6666666666660603
 50
180.0000000000097
 51
240.0183606311829
 73
     1
 72
     1
 10
-878.0360217907316
 20
35.01945809860099
 11
-875.8694476395688
 21
33.76951147292989
 72
     2
 10
-875.7028734884057
 20
34.05824000161279
 40
0.3333333333333141
 50
240.0183606311663
 51
420.0183606310309
 73
     1
 72
     1
 10
-875.5362993372416
 20
34.34696853029568
 11
-877.7028734884057
 21
35.59691515596678
 72
     1
 10
-877.7028734884057
 20
35.59691515596678
 11
-877.7028734884057
 21
40.24939416810145
 97
        7
330
94
330
70
330
9D
330
6D
330
93
330
6E
330
6F
 75
     0
 76
     1
 98
        1
 10
0.0
 20
0.0
  0
HATCH
  5
AD
330
47
100
AcDbEntity
  8
1
  6
Continuous
 62
     7
100
AcDbHatch
 10
0.0
 20
0.0
 30
0.0
210
0.0
220
0.0
230
1.0
  2
SOLID
 70
     1
 71
     1
 91
        1
 92
        1
 93
       16
 72
     2
 10
-873.9678397008806
 20
41.05811131996865
 40
0.2649662124749739
 50
210.0000000000121
 51
360.0
 73
     0
 72
     1
 10
-873.7028734884057
 20
41.05811131996865
 11
-873.7028734884057
 21
34.63516307853588
 72
     2
 10
-874.0362068217387
 20
34.63516307853588
 40
0.3333333333330302
 50
0.0
 51
180.0
 73
     0
 72
     1
 10
-874.3695401550717
 20
34.63516307853588
 11
-874.3695401550717
 21
37.82689400793407
 72
     1
 10
-874.3695401550717
 20
37.82689400793407
 11
-874.3695401550717
 21
39.55894481550291
 72
     1
 10
-874.3695401550717
 20
39.55894481550291
 11
-875.2252025877747
 21
38.07689400793407
 72
     2
 10
-875.3695401550717
 20
38.16022734126734
 40
0.1666666666671054
 50
30.000000000042
 51
150.0000000001144
 73
     0
 72
     1
 10
-875.5138777223697
 20
38.07689400793407
 11
-876.3695401550717
 21
39.55894481550291
 72
     1
 10
-876.3695401550717
 20
39.55894481550291
 11
-876.3695401550717
 21
37.82689400793407
 72
     1
 10
-876.3695401550717
 20
37.82689400793407
 11
-876.3695401550717
 21
36.17447908056698
 72
     2
 10
-876.7028734884057
 20
36.17447908056698
 40
0.3333333333330302
 50
0.0
 51
180.0
 73
     0
 72
     1
 10
-877.0362068217387
 20
36.17447908056698
 11
-877.0362068217387
 21
37.82689400793407
 72
     1
 10
-877.0362068217387
 20
37.82689400793407
 11
-877.0362068217387
 21
41.05811131996865
 72
     2
 10
-876.7712406092637
 20
41.05811131996865
 40
0.264966212475135
 50
180.0
 51
329.9999999999633
 73
     0
 72
     1
 10
-876.5417731381158
 20
41.19059442620637
 11
-875.3695401550717
 21
39.16022734126734
 72
     1
 10
-875.3695401550717
 20
39.16022734126734
 11
-874.1973071720288
 21
41.19059442620637
 97
       16
330
76
330
98
330
77
330
75
330
97
330
74
330
7C
330
7D
330
9E
330
7E
330
7F
330
73
330
96
330
72
330
95
330
71
 75
     0
 76
     1
 98
        1
 10
0.0
 20
0.0
  0
ENDBLK
  5
49
330
47
100
AcDbEntity
  8
0
100
AcDbBlockEnd
  0
BLOCK
  5
4C
330
4A
100
AcDbEntity
  8
0
100
AcDbBlockBegin
  2
A4_oriz
 70
     0
 10
291.8551065422054
 20
-0.23452093780543
 30
0.0
  3
A4_oriz
  1

  0
INSERT
  5
4B
330
4A
100
AcDbEntity
  8
1
100
AcDbBlockReference
  2
_formato_A4
 10
291.8551065422055
 20
-0.23452093780543
 30
0.0
  0
ENDBLK
  5
4D
330
4A
100
AcDbEntity
  8
0
100
AcDbBlockEnd
  0
BLOCK
  5
4F
330
4E
100
AcDbEntity
  8
0
100
AcDbBlockBegin
  2
MFVN_16_G32_4
 70
     0
 10
194.772249616983
 20
74.30981330754751
 30
0.0
  3
MFVN_16_G32_4
  1

  0
LINE
  5
AE
330
4E
100
AcDbEntity
  8
0
  6
Continuous
 62
     7
100
AcDbLine
 10
252.7722496169855
 20
85.55787748730201
 30
0.0
 11
252.7722496169855
 21
85.61944363483461
 31
0.0
  0
LINE
  5
AF
330
4E
100
AcDbEntity
  8
0
  6
Continuous
 62
     7
100
AcDbLine
 10
252.7722496169858
 20
83.89459880212483
 30
0.0
 11
252.7722496169858
 21
83.93205946146652
 31
0.0
  0
LINE
  5
B0
330
4E
100
AcDbEntity
  8
0
  6
Continuous
 62
     7
100
AcDbLine
 10
252.7722496169858
 20
83.93205946146652
 30
0.0
 11
252.7722496169858
 21
84.10981330754821
 31
0.0
  0
LINE
  5
B1
330
4E
100
AcDbEntity
  8
0
  6
Continuous
 62
     7
100
AcDbLine
 10
252.7722496169858
 20
84.10981330754821
 30
0.0
 11
252.7722496169858
 21
84.68896496356761
 31
0.0
  0
LINE
  5
B2
330
4E
100
AcDbEntity
  8
0
  6
Continuous
 62
     7
100
AcDbLine
 10
252.7722496169858
 20
84.68896496356761
 30
0.0
 11
252.7722496169858
 21
84.759813307555
 31
0.0
  0
LINE
  5
B3
330
4E
100
AcDbEntity
  8
0
  6
Continuous
 62
     7
100
AcDbLine
 10
252.7722496169858
 20
84.759813307555
 30
0.0
 11
252.7722496169858
 21
84.80981330755533
 31
0.0
  0
LINE
  5
B4
330
4E
100
AcDbEntity
  8
0
  6
Continuous
 62
     7
100
AcDbLine
 10
252.7722496169858
 20
83.45365284909563
 30
0.0
 11
252.7722496169858
 21
83.60838064279271
 31
0.0
  0
LINE
  5
B5
330
4E
100
AcDbEntity
  8
0
  6
Continuous
 62
     7
100
AcDbLine
 10
247.2722496169858
 20
84.10981330754753
 30
0.0
 11
247.2722496169858
 21
83.93205946146581
 31
0.0
  0
LINE
  5
B6
330
4E
100
AcDbEntity
  8
0
  6
Continuous
 62
     7
100
AcDbLine
 10
247.2722496169858
 20
84.68896496356693
 30
0.0
 11
247.2722496169858
 21
84.10981330754753
 31
0.0
  0
LINE
  5
B7
330
4E
100
AcDbEntity
  8
0
  6
Continuous
 62
     7
100
AcDbLine
 10
247.2722496169858
 20
84.68896496356693
 30
0.0
 11
248.3414206894417
 21
84.71715831504703
 31
0.0
  0
LINE
  5
B8
330
4E
100
AcDbEntity
  8
0
  6
Continuous
 62
     7
100
AcDbLine
 10
241.074369782447
 20
84.77391492268741
 30
0.0
 11
241.1991197807662
 21
84.71715831504623
 31
0.0
  0
LINE
  5
B9
330
4E
100
AcDbEntity
  8
0
  6
Continuous
 62
     7
100
AcDbLine
 10
252.7722496169859
 20
82.97907438719282
 30
0.0
 11
252.7722496169859
 21
83.10981330754952
 31
0.0
  0
LINE
  5
BA
330
4E
100
AcDbEntity
  8
0
  6
Continuous
 62
     7
100
AcDbLine
 10
231.2870553876395
 20
85.5578774872995
 30
0.0
 11
231.2870553876395
 21
85.61944363483211
 31
0.0
  0
LINE
  5
BB
330
4E
100
AcDbEntity
  8
0
  6
Continuous
 62
     7
100
AcDbLine
 10
231.2870553876396
 20
83.89459880212242
 30
0.0
 11
231.2870553876396
 21
83.93205946146402
 31
0.0
  0
LINE
  5
BC
330
4E
100
AcDbEntity
  8
0
  6
Continuous
 62
     7
100
AcDbLine
 10
252.7722496169855
 20
85.61944363483461
 30
0.0
 11
252.7722496169855
 21
86.27325792989153
 31
0.0
  0
LINE
  5
BD
330
4E
100
AcDbEntity
  8
0
  6
Continuous
 62
     7
100
AcDbLine
 10
216.2574438463318
 20
83.93205946146223
 30
0.0
 11
194.7722496169857
 21
83.93205946145981
 31
0.0
  0
LINE
  5
BE
330
4E
100
AcDbEntity
  8
0
  6
Continuous
 62
     7
100
AcDbLine
 10
216.2574438463318
 20
83.89459880212071
 30
0.0
 11
216.2574438463318
 21
83.93205946146223
 31
0.0
  0
LINE
  5
BF
330
4E
100
AcDbEntity
  8
0
  6
Continuous
 62
     7
100
AcDbLine
 10
200.2722496169857
 20
84.10981330754232
 30
0.0
 11
200.2722496169859
 21
83.93205946146041
 31
0.0
  0
LINE
  5
C0
330
4E
100
AcDbEntity
  8
0
  6
Continuous
 62
     7
100
AcDbLine
 10
194.7722496169857
 20
83.93205946145981
 30
0.0
 11
194.7722496169857
 21
84.10981330754161
 31
0.0
  0
LINE
  5
C1
330
4E
100
AcDbEntity
  8
0
  6
Continuous
 62
     7
100
AcDbLine
 10
194.7722496169857
 20
83.89459880211821
 30
0.0
 11
194.7722496169857
 21
83.93205946145981
 31
0.0
  0
LINE
  5
C2
330
4E
100
AcDbEntity
  8
0
  6
Continuous
 62
     7
100
AcDbLine
 10
194.7722496169857
 20
83.89459880211821
 30
0.0
 11
194.7722496169858
 21
83.60838064278612
 31
0.0
  0
LINE
  5
C3
330
4E
100
AcDbEntity
  8
0
  6
Continuous
 62
     7
100
AcDbLine
 10
200.2722496169858
 20
84.68896496356162
 30
0.0
 11
199.2030785445296
 21
84.71715831504143
 31
0.0
  0
LINE
  5
C4
330
4E
100
AcDbEntity
  8
0
  6
Continuous
 62
     7
100
AcDbLine
 10
200.2722496169858
 20
84.68896496356162
 30
0.0
 11
200.2722496169857
 21
84.10981330754232
 31
0.0
  0
LINE
  5
C5
330
4E
100
AcDbEntity
  8
0
  6
Continuous
 62
     7
100
AcDbLine
 10
216.2574438463315
 20
85.55787748729783
 30
0.0
 11
216.2574438463315
 21
85.61944363483043
 31
0.0
  0
LINE
  5
C6
330
4E
100
AcDbEntity
  8
0
  6
Continuous
 62
     7
100
AcDbLine
 10
216.2574438463315
 20
85.61944363483043
 30
0.0
 11
200.2722496169857
 21
85.61944363482861
 31
0.0
  0
LINE
  5
C7
330
4E
100
AcDbEntity
  8
0
  6
Continuous
 62
     7
100
AcDbLine
 10
206.4701294515243
 20
84.77391492268343
 30
0.0
 11
206.3453794532051
 21
84.71715831504223
 31
0.0
  0
LINE
  5
C8
330
4E
100
AcDbEntity
  8
0
  6
Continuous
 62
     7
100
AcDbLine
 10
194.7722496169855
 20
84.75981330754841
 30
0.0
 11
194.7722496169857
 21
84.80981330754871
 31
0.0
  0
LINE
  5
C9
330
4E
100
AcDbEntity
  8
0
  6
Continuous
 62
     7
100
AcDbLine
 10
194.7722496169858
 20
84.68896496356093
 30
0.0
 11
194.7722496169855
 21
84.75981330754841
 31
0.0
  0
LINE
  5
CA
330
4E
100
AcDbEntity
  8
0
  6
Continuous
 62
     7
100
AcDbLine
 10
194.7722496169857
 20
84.10981330754161
 30
0.0
 11
194.7722496169858
 21
84.68896496356093
 31
0.0
  0
LINE
  5
CB
330
4E
100
AcDbEntity
  8
0
  6
Continuous
 62
     7
100
AcDbLine
 10
252.7722496169858
 20
83.93205946146652
 30
0.0
 11
231.2870553876396
 21
83.93205946146402
 31
0.0
  0
LINE
  5
CC
330
4E
100
AcDbEntity
  8
0
  6
Continuous
 62
     7
100
AcDbLine
 10
194.7722496169858
 20
83.10981330754292
 30
0.0
 11
194.7722496169858
 21
83.45365284908901
 31
0.0
  0
LINE
  5
CD
330
4E
100
AcDbEntity
  8
0
  6
Continuous
 62
     7
100
AcDbLine
 10
200.2722496169857
 20
85.61944363482861
 30
0.0
 11
194.7722496169854
 21
85.61944363482793
 31
0.0
  0
LINE
  5
CE
330
4E
100
AcDbEntity
  8
0
  6
Continuous
 62
     7
100
AcDbLine
 10
194.7722496169854
 20
85.61944363482793
 30
0.0
 11
194.7722496169854
 21
86.27325792988493
 31
0.0
  0
LINE
  5
CF
330
4E
100
AcDbEntity
  8
0
  6
Continuous
 62
     7
100
AcDbLine
 10
252.7722496169855
 20
85.61944363483461
 30
0.0
 11
231.2870553876395
 21
85.61944363483211
 31
0.0
  0
LINE
  5
D0
330
4E
100
AcDbEntity
  8
0
  6
Continuous
 62
     7
100
AcDbLine
 10
252.7722496169858
 20
84.80981330755533
 30
0.0
 11
252.7722496169855
 21
85.55787748730201
 31
0.0
  0
LINE
  5
D1
330
4E
100
AcDbEntity
  8
0
  6
Continuous
 62
     7
100
AcDbLine
 10
194.7722496169858
 20
82.97907438718623
 30
0.0
 11
194.7722496169858
 21
83.10981330754292
 31
0.0
  0
LINE
  5
D2
330
4E
100
AcDbEntity
  8
0
  6
Continuous
 62
     7
100
AcDbLine
 10
194.7722496169857
 20
84.80981330754871
 30
0.0
 11
194.7722496169854
 21
85.55787748729541
 31
0.0
  0
LINE
  5
D3
330
4E
100
AcDbEntity
  8
0
  6
Continuous
 62
     7
100
AcDbLine
 10
194.7722496169854
 20
85.55787748729541
 30
0.0
 11
194.7722496169854
 21
85.61944363482793
 31
0.0
  0
LINE
  5
D4
330
4E
100
AcDbEntity
  8
0
  6
Continuous
 62
     7
100
AcDbLine
 10
194.7722496169858
 20
83.60838064278612
 30
0.0
 11
194.7722496169858
 21
83.45365284908901
 31
0.0
  0
LINE
  5
D5
330
4E
100
AcDbEntity
  8
0
  6
Continuous
 62
     7
100
AcDbLine
 10
194.7722496169854
 20
86.27325792988493
 30
0.0
 11
194.7722496169853
 21
86.34519190991882
 31
0.0
  0
LINE
  5
D6
330
4E
100
AcDbEntity
  8
0
  6
Continuous
 62
     7
100
AcDbLine
 10
252.7722496169855
 20
86.27325792989153
 30
0.0
 11
252.7722496169855
 21
86.34519190992542
 31
0.0
  0
LINE
  5
D7
330
4E
100
AcDbEntity
  8
0
  6
Continuous
 62
     7
100
AcDbLine
 10
194.7722496169853
 20
86.97293226817281
 30
0.0
 11
252.7722496169855
 21
86.97293226817943
 31
0.0
  0
LINE
  5
D8
330
4E
100
AcDbEntity
  8
0
  6
Continuous
 62
     7
100
AcDbLine
 10
252.7722496169855
 20
86.89203056874193
 30
0.0
 11
252.7722496169855
 21
86.97293226817943
 31
0.0
  0
LINE
  5
D9
330
4E
100
AcDbEntity
  8
0
  6
Continuous
 62
     7
100
AcDbLine
 10
252.7722496169855
 20
86.34519190992542
 30
0.0
 11
252.7722496169855
 21
86.89203056874193
 31
0.0
  0
LINE
  5
DA
330
4E
100
AcDbEntity
  8
0
  6
Continuous
 62
     7
100
AcDbLine
 10
194.7722496169853
 20
86.89203056873531
 30
0.0
 11
194.7722496169853
 21
86.97293226817281
 31
0.0
  0
LINE
  5
DB
330
4E
100
AcDbEntity
  8
0
  6
Continuous
 62
     7
100
AcDbLine
 10
194.7722496169853
 20
86.34519190991882
 30
0.0
 11
194.7722496169853
 21
86.89203056873531
 31
0.0
  0
LINE
  5
DC
330
4E
100
AcDbEntity
  8
0
  6
Continuous
 62
     7
100
AcDbLine
 10
194.7722496169853
 20
86.97293226817281
 30
0.0
 11
194.7722496169853
 21
87.40215169827472
 31
0.0
  0
LINE
  5
DD
330
4E
100
AcDbEntity
  8
0
  6
Continuous
 62
     7
100
AcDbLine
 10
252.7722496169855
 20
86.97293226817943
 30
0.0
 11
252.7722496169855
 21
87.40215169828132
 31
0.0
  0
LINE
  5
DE
330
4E
100
AcDbEntity
  8
0
  6
Continuous
 62
     7
100
AcDbLine
 10
194.7722496169853
 20
87.49044645756062
 30
0.0
 11
194.7722496169853
 21
87.79369239097083
 31
0.0
  0
LINE
  5
DF
330
4E
100
AcDbEntity
  8
0
  6
Continuous
 62
     7
100
AcDbLine
 10
194.7722496169853
 20
87.79369239097083
 30
0.0
 11
194.7722496169853
 21
87.88766165304942
 31
0.0
  0
LINE
  5
E0
330
4E
100
AcDbEntity
  8
0
  6
Continuous
 62
     7
100
AcDbLine
 10
194.7722496169853
 20
87.40215169827472
 30
0.0
 11
194.7722496169853
 21
87.49044645756062
 31
0.0
  0
LINE
  5
E1
330
4E
100
AcDbEntity
  8
0
  6
Continuous
 62
     7
100
AcDbLine
 10
252.7722496169853
 20
87.88766165305593
 30
0.0
 11
194.7722496169853
 21
87.88766165304942
 31
0.0
  0
LINE
  5
E2
330
4E
100
AcDbEntity
  8
0
  6
Continuous
 62
     7
100
AcDbLine
 10
252.7722496169855
 20
87.49044645756722
 30
0.0
 11
252.7722496169853
 21
87.79369239097743
 31
0.0
  0
LINE
  5
E3
330
4E
100
AcDbEntity
  8
0
  6
Continuous
 62
     7
100
AcDbLine
 10
252.7722496169853
 20
87.79369239097743
 30
0.0
 11
252.7722496169853
 21
87.88766165305593
 31
0.0
  0
LINE
  5
E4
330
4E
100
AcDbEntity
  8
0
  6
Continuous
 62
     7
100
AcDbLine
 10
252.7722496169855
 20
87.40215169828132
 30
0.0
 11
252.7722496169855
 21
87.49044645756722
 31
0.0
  0
LINE
  5
E5
330
4E
100
AcDbEntity
  8
0
  6
Continuous
 62
     7
100
AcDbLine
 10
194.7722496169853
 20
87.88766165304942
 30
0.0
 11
194.7722496169852
 21
88.05903175261112
 31
0.0
  0
LINE
  5
E6
330
4E
100
AcDbEntity
  8
0
  6
Continuous
 62
     7
100
AcDbLine
 10
252.7722496169853
 20
87.88766165305593
 30
0.0
 11
252.7722496169853
 21
88.05903175261783
 31
0.0
  0
LINE
  5
E7
330
4E
100
AcDbEntity
  8
0
  6
Continuous
 62
     7
100
AcDbLine
 10
194.7722496169852
 20
88.05903175261112
 30
0.0
 11
194.7722496169852
 21
88.15684651268451
 31
0.0
  0
LINE
  5
E8
330
4E
100
AcDbEntity
  8
0
  6
Continuous
 62
     7
100
AcDbLine
 10
247.2722496169833
 20
105.3863282196189
 30
0.0
 11
247.2722496169847
 21
93.37405102498143
 31
0.0
  0
LINE
  5
E9
330
4E
100
AcDbEntity
  8
0
  6
Continuous
 62
     7
100
AcDbLine
 10
247.2722496169832
 20
106.8098133075498
 30
0.0
 11
247.2722496169833
 21
105.3863282196189
 31
0.0
  0
LINE
  5
EA
330
4E
100
AcDbEntity
  8
0
  6
Continuous
 62
     7
100
AcDbLine
 10
252.7722496169833
 20
105.3863282196195
 30
0.0
 11
252.772249616985
 21
91.83353027418683
 31
0.0
  0
LINE
  5
EB
330
4E
100
AcDbEntity
  8
0
  6
Continuous
 62
     7
100
AcDbLine
 10
250.2722496169864
 20
78.30981330755141
 30
0.0
 11
251.2722496169864
 21
78.30981330755152
 31
0.0
  0
LINE
  5
EC
330
4E
100
AcDbEntity
  8
0
  6
Continuous
 62
     7
100
AcDbLine
 10
252.772249616986
 20
82.0310597041019
 30
0.0
 11
252.7722496169859
 21
82.97907438719282
 31
0.0
  0
LINE
  5
ED
330
4E
100
AcDbEntity
  8
0
  6
Continuous
 62
     7
100
AcDbLine
 10
252.7722496169864
 20
78.30981330755172
 30
0.0
 11
252.7722496169864
 21
79.14669434693043
 31
0.0
  0
LINE
  5
EE
330
4E
100
AcDbEntity
  8
0
  6
Continuous
 62
     7
100
AcDbLine
 10
252.772249616986
 20
81.29595664106903
 30
0.0
 11
252.772249616986
 21
81.86281647939772
 31
0.0
  0
LINE
  5
EF
330
4E
100
AcDbEntity
  8
0
  6
Continuous
 62
     7
100
AcDbLine
 10
252.772249616986
 20
81.86281647939772
 30
0.0
 11
252.772249616986
 21
82.0310597041019
 31
0.0
  0
LINE
  5
F0
330
4E
100
AcDbEntity
  8
0
  6
Continuous
 62
     7
100
AcDbLine
 10
252.772249616986
 20
81.06900678030782
 30
0.0
 11
252.772249616986
 21
81.29595664106903
 31
0.0
  0
LINE
  5
F1
330
4E
100
AcDbEntity
  8
0
  6
Continuous
 62
     7
100
AcDbLine
 10
252.7722496169864
 20
78.30981330755172
 30
0.0
 11
252.7722496169864
 21
78.24121528003143
 31
0.0
  0
LINE
  5
F2
330
4E
100
AcDbEntity
  8
0
  6
Continuous
 62
     7
100
AcDbLine
 10
252.7722496169862
 20
80.11164088165332
 30
0.0
 11
252.7722496169862
 21
80.60227330755082
 31
0.0
  0
LINE
  5
F3
330
4E
100
AcDbEntity
  8
0
  6
Continuous
 62
     7
100
AcDbLine
 10
252.7722496169862
 20
79.79179542542941
 30
0.0
 11
252.7722496169862
 21
80.11164088165332
 31
0.0
  0
LINE
  5
F4
330
4E
100
AcDbEntity
  8
0
  6
Continuous
 62
     7
100
AcDbLine
 10
252.7722496169864
 20
79.17759604636792
 30
0.0
 11
252.7722496169862
 21
79.79179542542941
 31
0.0
  0
LINE
  5
F5
330
4E
100
AcDbEntity
  8
0
  6
Continuous
 62
     7
100
AcDbLine
 10
252.7722496169864
 20
79.14669434693043
 30
0.0
 11
252.7722496169864
 21
79.17759604636792
 31
0.0
  0
LINE
  5
F6
330
4E
100
AcDbEntity
  8
0
  6
Continuous
 62
     7
100
AcDbLine
 10
252.7722496169862
 20
80.60227330755082
 30
0.0
 11
252.772249616986
 21
81.06900678030782
 31
0.0
  0
LINE
  5
F7
330
4E
100
AcDbEntity
  8
0
  6
Continuous
 62
     7
100
AcDbLine
 10
252.7722496169864
 20
77.80981330755533
 30
0.0
 11
252.7722496169864
 21
78.24121528003143
 31
0.0
  0
LINE
  5
F8
330
4E
100
AcDbEntity
  8
0
  6
Continuous
 62
     7
100
AcDbLine
 10
250.2722496169864
 20
78.30981330755141
 30
0.0
 11
247.2722496169864
 21
78.30981330754982
 31
0.0
  0
LINE
  5
F9
330
4E
100
AcDbEntity
  8
0
  6
Continuous
 62
     7
100
AcDbLine
 10
247.2722496169864
 20
79.14669434692983
 30
0.0
 11
250.333434327575
 21
79.14669434693012
 31
0.0
  0
LINE
  5
FA
330
4E
100
AcDbEntity
  8
0
  6
Continuous
 62
     7
100
AcDbLine
 10
252.772249616985
 20
91.83353027418683
 30
0.0
 11
252.7722496169851
 21
90.40171433202623
 31
0.0
  0
LINE
  5
FB
330
4E
100
AcDbEntity
  8
0
  6
Continuous
 62
     7
100
AcDbLine
 10
252.7722496169851
 20
90.40171433202623
 30
0.0
 11
252.7722496169851
 21
89.82524345252561
 31
0.0
  0
LINE
  5
FC
330
4E
100
AcDbEntity
  8
0
  6
Continuous
 62
     7
100
AcDbLine
 10
251.2722496169864
 20
78.30981330755152
 30
0.0
 11
251.9722496169864
 21
78.30981330755161
 31
0.0
  0
LINE
  5
FD
330
4E
100
AcDbEntity
  8
0
  6
Continuous
 62
     7
100
AcDbLine
 10
250.333434327575
 20
79.14669434693012
 30
0.0
 11
252.7722496169864
 21
79.14669434693043
 31
0.0
  0
LINE
  5
FE
330
4E
100
AcDbEntity
  8
0
  6
Continuous
 62
     7
100
AcDbLine
 10
252.7722496169853
 20
88.05903175261783
 30
0.0
 11
252.7722496169853
 21
88.15684651269113
 31
0.0
  0
LINE
  5
FF
330
4E
100
AcDbEntity
  8
0
  6
Continuous
 62
     7
100
AcDbLine
 10
252.7722496169853
 20
88.20981330755431
 30
0.0
 11
252.7722496169853
 21
88.30981330755431
 31
0.0
  0
LINE
  5
100
330
4E
100
AcDbEntity
  8
0
  6
Continuous
 62
     7
100
AcDbLine
 10
252.7722496169853
 20
88.15684651269113
 30
0.0
 11
252.7722496169853
 21
88.20981330755431
 31
0.0
  0
LINE
  5
101
330
4E
100
AcDbEntity
  8
0
  6
Continuous
 62
     7
100
AcDbLine
 10
252.7722496169851
 20
89.82524345252561
 30
0.0
 11
252.7722496169853
 21
88.30981330755431
 31
0.0
  0
LINE
  5
102
330
4E
100
AcDbEntity
  8
0
  6
Continuous
 62
     7
100
AcDbLine
 10
252.7722496169832
 20
106.8098133075504
 30
0.0
 11
247.2722496169832
 21
106.8098133075498
 31
0.0
  0
LINE
  5
103
330
4E
100
AcDbEntity
  8
0
  6
Continuous
 62
     7
100
AcDbLine
 10
252.7722496169864
 20
78.30981330755172
 30
0.0
 11
251.9722496169864
 21
78.30981330755161
 31
0.0
  0
LINE
  5
104
330
4E
100
AcDbEntity
  8
0
  6
Continuous
 62
     7
100
AcDbLine
 10
231.2870553876404
 20
77.39546298325722
 30
0.0
 11
247.2722496169864
 21
77.39546298325901
 31
0.0
  0
LINE
  5
105
330
4E
100
AcDbEntity
  8
0
  6
Continuous
 62
     7
100
AcDbLine
 10
231.2870553876399
 20
82.04151255042622
 30
0.0
 11
252.772249616986
 21
82.0310597041019
 31
0.0
  0
LINE
  5
106
330
4E
100
AcDbEntity
  8
0
  6
Continuous
 62
     7
100
AcDbLine
 10
252.772249616986
 20
81.06900678030782
 30
0.0
 11
231.28705538764
 21
81.06551683063513
 31
0.0
  0
LINE
  5
107
330
4E
100
AcDbEntity
  8
0
  6
Continuous
 62
     7
100
AcDbLine
 10
231.2870553876404
 20
77.39546298325722
 30
0.0
 11
231.2870553876404
 21
77.45138227360432
 31
0.0
  0
LINE
  5
108
330
4E
100
AcDbEntity
  8
0
  6
Continuous
 62
     7
100
AcDbLine
 10
231.2870553876404
 20
79.14669434692793
 30
0.0
 11
231.2870553876404
 21
79.17759604636542
 31
0.0
  0
LINE
  5
109
330
4E
100
AcDbEntity
  8
0
  6
Continuous
 62
     7
100
AcDbLine
 10
231.2870553876404
 20
79.14669434692793
 30
0.0
 11
247.2722496169864
 21
79.14669434692983
 31
0.0
  0
LINE
  5
10A
330
4E
100
AcDbEntity
  8
0
  6
Continuous
 62
     7
100
AcDbLine
 10
223.772249616986
 20
81.30981330755101
 30
0.0
 11
223.7722496169862
 21
80.70284043351653
 31
0.0
  0
LINE
  5
10B
330
4E
100
AcDbEntity
  8
0
  6
Continuous
 62
     7
100
AcDbLine
 10
223.7722496169862
 20
80.70284043351653
 30
0.0
 11
223.7722496169862
 21
80.49413886466853
 31
0.0
  0
LINE
  5
10C
330
4E
100
AcDbEntity
  8
0
  6
Continuous
 62
     7
100
AcDbLine
 10
203.2722496169849
 20
91.2036634317951
 30
0.0
 11
244.272249616985
 21
91.20366343179982
 31
0.0
  0
LINE
  5
10D
330
4E
100
AcDbEntity
  8
0
  6
Continuous
 62
     7
100
AcDbLine
 10
200.2722496169853
 20
88.30981330754831
 30
0.0
 11
252.7722496169853
 21
88.30981330755431
 31
0.0
  0
LINE
  5
10E
330
4E
100
AcDbEntity
  8
0
  6
Continuous
 62
     7
100
AcDbLine
 10
252.7722496169832
 20
106.8098133075504
 30
0.0
 11
252.7722496169833
 21
105.3863282196195
 31
0.0
  0
LINE
  5
10F
330
4E
100
AcDbEntity
  8
0
  6
Continuous
 62
     7
100
AcDbLine
 10
216.2574438463327
 20
77.39546298325551
 30
0.0
 11
216.2574438463327
 21
77.45138227360262
 31
0.0
  0
LINE
  5
110
330
4E
100
AcDbEntity
  8
0
  6
Continuous
 62
     7
100
AcDbLine
 10
194.7722496169864
 20
76.69281212367211
 30
0.0
 11
194.7722496169864
 21
77.39546298325313
 31
0.0
  0
LINE
  5
111
330
4E
100
AcDbEntity
  8
0
  6
Continuous
 62
     7
100
AcDbLine
 10
194.7722496169864
 20
77.39546298325313
 30
0.0
 11
194.7722496169864
 21
77.45138227360023
 31
0.0
  0
LINE
  5
112
330
4E
100
AcDbEntity
  8
0
  6
Continuous
 62
     7
100
AcDbLine
 10
194.7722496169864
 20
77.39546298325313
 30
0.0
 11
197.1823670867618
 21
77.39546298325341
 31
0.0
  0
LINE
  5
113
330
4E
100
AcDbEntity
  8
0
  6
Continuous
 62
     7
100
AcDbLine
 10
197.1823670867618
 20
77.39546298325341
 30
0.0
 11
200.2722496169866
 21
77.39546298325372
 31
0.0
  0
LINE
  5
114
330
4E
100
AcDbEntity
  8
0
  6
Continuous
 62
     7
100
AcDbLine
 10
200.2722496169866
 20
77.39546298325372
 30
0.0
 11
216.2574438463327
 21
77.39546298325551
 31
0.0
  0
LINE
  5
115
330
4E
100
AcDbEntity
  8
0
  6
Continuous
 62
     7
100
AcDbLine
 10
194.7722496169864
 20
77.45138227360023
 30
0.0
 11
194.7722496169863
 21
77.80981330754871
 31
0.0
  0
LINE
  5
116
330
4E
100
AcDbEntity
  8
0
  6
Continuous
 62
     7
100
AcDbLine
 10
194.7722496169868
 20
74.47696363323091
 30
0.0
 11
194.7722496169868
 21
74.58098143597961
 31
0.0
  0
LINE
  5
117
330
4E
100
AcDbEntity
  8
0
  6
Continuous
 62
     7
100
AcDbLine
 10
194.7722496169868
 20
74.40981330754762
 30
0.0
 11
194.7722496169868
 21
74.47696363323091
 31
0.0
  0
LINE
  5
118
330
4E
100
AcDbEntity
  8
0
  6
Continuous
 62
     7
100
AcDbLine
 10
252.7722496169868
 20
74.67710760558013
 30
0.0
 11
252.7722496169868
 21
74.58098143598623
 31
0.0
  0
LINE
  5
119
330
4E
100
AcDbEntity
  8
0
  6
Continuous
 62
     7
100
AcDbLine
 10
247.2722496169867
 20
75.9475022057213
 30
0.0
 11
200.2722496169867
 21
75.9475022057159
 31
0.0
  0
LINE
  5
11A
330
4E
100
AcDbEntity
  8
0
  6
Continuous
 62
     7
100
AcDbLine
 10
200.2722496169867
 20
75.9475022057159
 30
0.0
 11
194.7722496169866
 21
75.94750220571531
 31
0.0
  0
LINE
  5
11B
330
4E
100
AcDbEntity
  8
0
  6
Continuous
 62
     7
100
AcDbLine
 10
194.7722496169866
 20
75.94750220571531
 30
0.0
 11
194.7722496169866
 21
76.02410665002732
 31
0.0
  0
LINE
  5
11C
330
4E
100
AcDbEntity
  8
0
  6
Continuous
 62
     7
100
AcDbLine
 10
194.7722496169864
 20
76.69281212367211
 30
0.0
 11
194.7722496169864
 21
76.62589906303621
 31
0.0
  0
LINE
  5
11D
330
4E
100
AcDbEntity
  8
0
  6
Continuous
 62
     7
100
AcDbLine
 10
194.7722496169866
 20
76.02410665002732
 30
0.0
 11
194.7722496169864
 21
76.62589906303621
 31
0.0
  0
LINE
  5
11E
330
4E
100
AcDbEntity
  8
0
  6
Continuous
 62
     7
100
AcDbLine
 10
252.7722496169867
 20
75.45828144407541
 30
0.0
 11
252.7722496169868
 21
75.37347663445972
 31
0.0
  0
LINE
  5
11F
330
4E
100
AcDbEntity
  8
0
  6
Continuous
 62
     7
100
AcDbLine
 10
252.7722496169867
 20
76.69281212367882
 30
0.0
 11
252.7722496169867
 21
76.62589906304281
 31
0.0
  0
LINE
  5
120
330
4E
100
AcDbEntity
  8
0
  6
Continuous
 62
     7
100
AcDbLine
 10
200.2722496169869
 20
74.91499510405042
 30
0.0
 11
194.7722496169867
 21
74.91499510404971
 31
0.0
  0
LINE
  5
121
330
4E
100
AcDbEntity
  8
0
  6
Continuous
 62
     7
100
AcDbLine
 10
194.7722496169867
 20
75.45828144406873
 30
0.0
 11
194.7722496169867
 21
75.37347663445313
 31
0.0
  0
LINE
  5
122
330
4E
100
AcDbEntity
  8
0
  6
Continuous
 62
     7
100
AcDbLine
 10
194.7722496169867
 20
75.00634964981403
 30
0.0
 11
194.7722496169867
 21
75.37347663445313
 31
0.0
  0
LINE
  5
123
330
4E
100
AcDbEntity
  8
0
  6
Continuous
 62
     7
100
AcDbLine
 10
194.7722496169867
 20
75.45828144406873
 30
0.0
 11
194.7722496169866
 21
75.94750220571531
 31
0.0
  0
LINE
  5
124
330
4E
100
AcDbEntity
  8
0
  6
Continuous
 62
     7
100
AcDbLine
 10
247.2722496169868
 20
74.91499510405582
 30
0.0
 11
200.2722496169869
 21
74.91499510405042
 31
0.0
  0
LINE
  5
125
330
4E
100
AcDbEntity
  8
0
  6
Continuous
 62
     7
100
AcDbLine
 10
194.7722496169868
 20
74.67710760557351
 30
0.0
 11
194.7722496169867
 21
74.91499510404971
 31
0.0
  0
LINE
  5
126
330
4E
100
AcDbEntity
  8
0
  6
Continuous
 62
     7
100
AcDbLine
 10
194.7722496169868
 20
74.67710760557351
 30
0.0
 11
194.7722496169868
 21
74.58098143597961
 31
0.0
  0
LINE
  5
127
330
4E
100
AcDbEntity
  8
0
  6
Continuous
 62
     7
100
AcDbLine
 10
194.7722496169867
 20
74.91499510404971
 30
0.0
 11
194.7722496169867
 21
75.00634964981403
 31
0.0
  0
LINE
  5
128
330
4E
100
AcDbEntity
  8
0
  6
Continuous
 62
     7
100
AcDbLine
 10
252.7722496169869
 20
74.30981330755431
 30
0.0
 11
252.7722496169869
 21
74.37793682636341
 31
0.0
  0
LINE
  5
129
330
4E
100
AcDbEntity
  8
0
  6
Continuous
 62
     7
100
AcDbLine
 10
194.7722496169868
 20
74.30981330754763
 30
0.0
 11
194.7722496169868
 21
74.37793682635682
 31
0.0
  0
LINE
  5
12A
330
4E
100
AcDbEntity
  8
0
  6
Continuous
 62
     7
100
AcDbLine
 10
194.7722496169868
 20
74.37793682635682
 30
0.0
 11
194.7722496169868
 21
74.40981330754762
 31
0.0
  0
LINE
  5
12B
330
4E
100
AcDbEntity
  8
0
  6
Continuous
 62
     7
100
AcDbLine
 10
244.2722496169869
 20
74.30981330755252
 30
0.0
 11
203.2722496169869
 21
74.30981330754783
 31
0.0
  0
LINE
  5
12C
330
4E
100
AcDbEntity
  8
0
  6
Continuous
 62
     7
100
AcDbLine
 10
247.2722496169871
 20
74.30981330754982
 30
0.0
 11
244.2722496169869
 21
74.30981330755252
 31
0.0
  0
LINE
  5
12D
330
4E
100
AcDbEntity
  8
0
  6
Continuous
 62
     7
100
AcDbLine
 10
203.2722496169869
 20
74.30981330754783
 30
0.0
 11
200.2722496169869
 21
74.30981330754751
 31
0.0
  0
LINE
  5
12E
330
4E
100
AcDbEntity
  8
0
  6
Continuous
 62
     7
100
AcDbLine
 10
200.2722496169869
 20
74.30981330754751
 30
0.0
 11
194.7722496169868
 21
74.30981330754763
 31
0.0
  0
LINE
  5
12F
330
4E
100
AcDbEntity
  8
0
  6
Continuous
 62
     7
100
AcDbLine
 10
247.2722496169869
 20
74.37793682636281
 30
0.0
 11
200.2722496169869
 21
74.37793682635741
 31
0.0
  0
LINE
  5
130
330
4E
100
AcDbEntity
  8
0
  6
Continuous
 62
     7
100
AcDbLine
 10
200.2722496169869
 20
74.37793682635741
 30
0.0
 11
194.7722496169868
 21
74.37793682635682
 31
0.0
  0
LINE
  5
131
330
4E
100
AcDbEntity
  8
0
  6
Continuous
 62
     7
100
AcDbLine
 10
252.7722496169867
 20
75.45828144407541
 30
0.0
 11
252.7722496169867
 21
75.94750220572193
 31
0.0
  0
LINE
  5
132
330
4E
100
AcDbEntity
  8
0
  6
Continuous
 62
     7
100
AcDbLine
 10
252.7722496169867
 20
76.69281212367882
 30
0.0
 11
252.7722496169864
 21
77.39546298325972
 31
0.0
  0
LINE
  5
133
330
4E
100
AcDbEntity
  8
0
  6
Continuous
 62
     7
100
AcDbLine
 10
252.7722496169864
 20
77.45138227360682
 30
0.0
 11
252.7722496169864
 21
77.80981330755533
 31
0.0
  0
LINE
  5
134
330
4E
100
AcDbEntity
  8
0
  6
Continuous
 62
     7
100
AcDbLine
 10
252.7722496169867
 20
76.02410665003391
 30
0.0
 11
252.7722496169867
 21
76.62589906304281
 31
0.0
  0
LINE
  5
135
330
4E
100
AcDbEntity
  8
0
  6
Continuous
 62
     7
100
AcDbLine
 10
252.7722496169868
 20
75.00634964982062
 30
0.0
 11
252.7722496169868
 21
75.37347663445972
 31
0.0
  0
LINE
  5
136
330
4E
100
AcDbEntity
  8
0
  6
Continuous
 62
     7
100
AcDbLine
 10
252.7722496169869
 20
74.30981330755431
 30
0.0
 11
247.2722496169871
 21
74.30981330754982
 31
0.0
  0
LINE
  5
137
330
4E
100
AcDbEntity
  8
0
  6
Continuous
 62
     7
100
AcDbLine
 10
200.2722496169864
 20
78.30981330754453
 30
0.0
 11
197.2722496169863
 21
78.30981330754541
 31
0.0
  0
LINE
  5
138
330
4E
100
AcDbEntity
  8
0
  6
Continuous
 62
     7
100
AcDbLine
 10
197.2110649063978
 20
79.14669434692412
 30
0.0
 11
200.2722496169863
 21
79.14669434692443
 31
0.0
  0
LINE
  5
139
330
4E
100
AcDbEntity
  8
0
  6
Continuous
 62
     7
100
AcDbLine
 10
194.7722496169863
 20
78.28505239470373
 30
0.0
 11
194.7722496169862
 21
79.14669434692381
 31
0.0
  0
LINE
  5
13A
330
4E
100
AcDbEntity
  8
0
  6
Continuous
 62
     7
100
AcDbLine
 10
195.5722496169864
 20
78.30981330754521
 30
0.0
 11
194.7722496169863
 21
78.28505239470373
 31
0.0
  0
LINE
  5
13B
330
4E
100
AcDbEntity
  8
0
  6
Continuous
 62
     7
100
AcDbLine
 10
194.7722496169862
 20
79.79179542542273
 30
0.0
 11
194.772249616986
 21
80.11164088164661
 31
0.0
  0
LINE
  5
13C
330
4E
100
AcDbEntity
  8
0
  6
Continuous
 62
     7
100
AcDbLine
 10
194.7722496169862
 20
79.17759604636133
 30
0.0
 11
194.7722496169862
 21
79.79179542542273
 31
0.0
  0
LINE
  5
13D
330
4E
100
AcDbEntity
  8
0
  6
Continuous
 62
     7
100
AcDbLine
 10
194.7722496169862
 20
79.14669434692381
 30
0.0
 11
194.7722496169862
 21
79.17759604636133
 31
0.0
  0
LINE
  5
13E
330
4E
100
AcDbEntity
  8
0
  6
Continuous
 62
     7
100
AcDbLine
 10
194.7722496169863
 20
78.28505239470373
 30
0.0
 11
194.7722496169863
 21
78.24121528002483
 31
0.0
  0
LINE
  5
13F
330
4E
100
AcDbEntity
  8
0
  6
Continuous
 62
     7
100
AcDbLine
 10
194.7722496169863
 20
77.80981330754871
 30
0.0
 11
194.7722496169863
 21
78.24121528002483
 31
0.0
  0
LINE
  5
140
330
4E
100
AcDbEntity
  8
0
  6
Continuous
 62
     7
100
AcDbLine
 10
196.2722496169864
 20
78.30981330754533
 30
0.0
 11
195.5722496169864
 21
78.30981330754521
 31
0.0
  0
LINE
  5
141
330
4E
100
AcDbEntity
  8
0
  6
Continuous
 62
     7
100
AcDbLine
 10
197.2722496169863
 20
78.30981330754541
 30
0.0
 11
196.2722496169864
 21
78.30981330754533
 31
0.0
  0
LINE
  5
142
330
4E
100
AcDbEntity
  8
0
  6
Continuous
 62
     7
100
AcDbLine
 10
194.7722496169862
 20
79.14669434692381
 30
0.0
 11
197.2110649063978
 21
79.14669434692412
 31
0.0
  0
LINE
  5
143
330
4E
100
AcDbEntity
  8
0
  6
Continuous
 62
     7
100
AcDbLine
 10
200.2722496169863
 20
79.14669434692443
 30
0.0
 11
216.2574438463323
 21
79.14669434692622
 31
0.0
  0
LINE
  5
144
330
4E
100
AcDbEntity
  8
0
  6
Continuous
 62
     7
100
AcDbLine
 10
216.2574438463323
 20
79.14669434692622
 30
0.0
 11
216.2574438463323
 21
79.17759604636372
 31
0.0
  0
LINE
  5
145
330
4E
100
AcDbEntity
  8
0
  6
Continuous
 62
     7
100
AcDbLine
 10
252.7722496169859
 20
83.10981330754952
 30
0.0
 11
252.7722496169858
 21
83.45365284909563
 31
0.0
  0
LINE
  5
146
330
4E
100
AcDbEntity
  8
0
  6
Continuous
 62
     7
100
AcDbLine
 10
252.7722496169858
 20
83.89459880212483
 30
0.0
 11
252.7722496169858
 21
83.60838064279271
 31
0.0
  0
LINE
  5
147
330
4E
100
AcDbEntity
  8
0
  6
Continuous
 62
     7
100
AcDbLine
 10
252.7722496169864
 20
77.39546298325972
 30
0.0
 11
252.7722496169864
 21
77.45138227360682
 31
0.0
  0
LINE
  5
148
330
4E
100
AcDbEntity
  8
0
  6
Continuous
 62
     7
100
AcDbLine
 10
252.7722496169869
 20
74.40981330755433
 30
0.0
 11
252.7722496169868
 21
74.47696363323753
 31
0.0
  0
LINE
  5
149
330
4E
100
AcDbEntity
  8
0
  6
Continuous
 62
     7
100
AcDbLine
 10
252.7722496169868
 20
74.47696363323753
 30
0.0
 11
252.7722496169868
 21
74.58098143598623
 31
0.0
  0
LINE
  5
14A
330
4E
100
AcDbEntity
  8
0
  6
Continuous
 62
     7
100
AcDbLine
 10
252.7722496169868
 20
74.67710760558013
 30
0.0
 11
252.7722496169868
 21
74.91499510405642
 31
0.0
  0
LINE
  5
14B
330
4E
100
AcDbEntity
  8
0
  6
Continuous
 62
     7
100
AcDbLine
 10
252.7722496169868
 20
74.91499510405642
 30
0.0
 11
252.7722496169868
 21
75.00634964982062
 31
0.0
  0
LINE
  5
14C
330
4E
100
AcDbEntity
  8
0
  6
Continuous
 62
     7
100
AcDbLine
 10
252.7722496169867
 20
75.94750220572193
 30
0.0
 11
252.7722496169867
 21
76.02410665003391
 31
0.0
  0
LINE
  5
14D
330
4E
100
AcDbEntity
  8
0
  6
Continuous
 62
     7
100
AcDbLine
 10
247.2722496169864
 20
77.39546298325901
 30
0.0
 11
252.7722496169864
 21
77.39546298325972
 31
0.0
  0
LINE
  5
14E
330
4E
100
AcDbEntity
  8
0
  6
Continuous
 62
     7
100
AcDbLine
 10
252.7722496169867
 20
75.94750220572193
 30
0.0
 11
247.2722496169867
 21
75.9475022057213
 31
0.0
  0
LINE
  5
14F
330
4E
100
AcDbEntity
  8
0
  6
Continuous
 62
     7
100
AcDbLine
 10
252.7722496169868
 20
74.91499510405642
 30
0.0
 11
247.2722496169868
 21
74.91499510405582
 31
0.0
  0
LINE
  5
150
330
4E
100
AcDbEntity
  8
0
  6
Continuous
 62
     7
100
AcDbLine
 10
252.7722496169869
 20
74.37793682636341
 30
0.0
 11
252.7722496169869
 21
74.40981330755433
 31
0.0
  0
LINE
  5
151
330
4E
100
AcDbEntity
  8
0
  6
Continuous
 62
     7
100
AcDbLine
 10
252.7722496169869
 20
74.37793682636341
 30
0.0
 11
247.2722496169869
 21
74.37793682636281
 31
0.0
  0
LINE
  5
152
330
4E
100
AcDbEntity
  8
0
  6
Continuous
 62
     7
100
AcDbLine
 10
194.7722496169852
 20
88.30981330754771
 30
0.0
 11
200.2722496169853
 21
88.30981330754831
 31
0.0
  0
LINE
  5
153
330
4E
100
AcDbEntity
  8
0
  6
Continuous
 62
     7
100
AcDbLine
 10
194.7722496169852
 20
89.82524345251893
 30
0.0
 11
194.7722496169852
 21
88.30981330754771
 31
0.0
  0
LINE
  5
154
330
4E
100
AcDbEntity
  8
0
  6
Continuous
 62
     7
100
AcDbLine
 10
200.2722496169846
 20
93.37405102497603
 30
0.0
 11
200.2722496169833
 21
105.3863282196134
 31
0.0
  0
LINE
  5
155
330
4E
100
AcDbEntity
  8
0
  6
Continuous
 62
     7
100
AcDbLine
 10
216.2574438463322
 20
81.06551683063343
 30
0.0
 11
194.772249616986
 21
81.06900678030122
 31
0.0
  0
LINE
  5
156
330
4E
100
AcDbEntity
  8
0
  6
Continuous
 62
     7
100
AcDbLine
 10
194.7722496169859
 20
82.03105970409531
 30
0.0
 11
216.2574438463322
 21
82.04151255042451
 31
0.0
  0
LINE
  5
157
330
4E
100
AcDbEntity
  8
0
  6
Continuous
 62
     7
100
AcDbLine
 10
194.7722496169859
 20
82.03105970409531
 30
0.0
 11
194.7722496169858
 21
82.97907438718623
 31
0.0
  0
LINE
  5
158
330
4E
100
AcDbEntity
  8
0
  6
Continuous
 62
     7
100
AcDbLine
 10
194.772249616986
 20
80.11164088164661
 30
0.0
 11
194.772249616986
 21
80.60227330754411
 31
0.0
  0
LINE
  5
159
330
4E
100
AcDbEntity
  8
0
  6
Continuous
 62
     7
100
AcDbLine
 10
194.772249616986
 20
80.60227330754411
 30
0.0
 11
194.772249616986
 21
81.06900678030122
 31
0.0
  0
LINE
  5
15A
330
4E
100
AcDbEntity
  8
0
  6
Continuous
 62
     7
100
AcDbLine
 10
194.772249616986
 20
81.29595664106252
 30
0.0
 11
194.7722496169859
 21
81.86281647939133
 31
0.0
  0
LINE
  5
15B
330
4E
100
AcDbEntity
  8
0
  6
Continuous
 62
     7
100
AcDbLine
 10
194.7722496169859
 20
81.86281647939133
 30
0.0
 11
194.7722496169859
 21
82.03105970409531
 31
0.0
  0
LINE
  5
15C
330
4E
100
AcDbEntity
  8
0
  6
Continuous
 62
     7
100
AcDbLine
 10
194.772249616986
 20
81.06900678030122
 30
0.0
 11
194.772249616986
 21
81.29595664106252
 31
0.0
  0
LINE
  5
15D
330
4E
100
AcDbEntity
  8
0
  6
Continuous
 62
     7
100
AcDbLine
 10
194.772249616985
 20
90.40171433201952
 30
0.0
 11
194.7722496169852
 21
89.82524345251893
 31
0.0
  0
LINE
  5
15E
330
4E
100
AcDbEntity
  8
0
  6
Continuous
 62
     7
100
AcDbLine
 10
194.7722496169847
 20
91.83353027418023
 30
0.0
 11
194.772249616985
 21
90.40171433201952
 31
0.0
  0
LINE
  5
15F
330
4E
100
AcDbEntity
  8
0
  6
Continuous
 62
     7
100
AcDbLine
 10
194.7722496169833
 20
105.3863282196129
 30
0.0
 11
194.7722496169847
 21
91.83353027418023
 31
0.0
  0
LINE
  5
160
330
4E
100
AcDbEntity
  8
0
  6
Continuous
 62
     7
100
AcDbLine
 10
194.772249616983
 20
106.8098133075438
 30
0.0
 11
194.7722496169833
 21
105.3863282196129
 31
0.0
  0
LINE
  5
161
330
4E
100
AcDbEntity
  8
0
  6
Continuous
 62
     7
100
AcDbLine
 10
200.2722496169832
 20
106.8098133075445
 30
0.0
 11
200.2722496169833
 21
105.3863282196134
 31
0.0
  0
LINE
  5
162
330
4E
100
AcDbEntity
  8
0
  6
Continuous
 62
     7
100
AcDbLine
 10
194.7722496169852
 20
88.20981330754772
 30
0.0
 11
194.7722496169852
 21
88.30981330754771
 31
0.0
  0
LINE
  5
163
330
4E
100
AcDbEntity
  8
0
  6
Continuous
 62
     7
100
AcDbLine
 10
194.7722496169852
 20
88.15684651268451
 30
0.0
 11
194.7722496169852
 21
88.20981330754772
 31
0.0
  0
LINE
  5
164
330
4E
100
AcDbEntity
  8
0
  6
Continuous
 62
     7
100
AcDbLine
 10
200.2722496169832
 20
106.8098133075445
 30
0.0
 11
194.772249616983
 21
106.8098133075438
 31
0.0
  0
SPLINE
  5
165
330
4E
100
AcDbEntity
  8
0
  6
Continuous
 62
     7
100
AcDbSpline
210
0.0
220
0.0
230
1.0
 70
     8
 71
     3
 72
     9
 73
     5
 74
     3
 42
0.000000001
 43
0.0000000001
 44
0.00000001
 40
0.0
 40
0.0
 40
0.0
 40
0.0
 40
2.214209117189176
 40
3.982591608868158
 40
3.982591608868158
 40
3.982591608868158
 40
3.982591608868158
 10
244.272249616985
 20
91.20366343179982
 30
0.0
 10
245.0737496375725
 20
91.2965683065713
 30
0.0
 10
246.51536922643
 20
91.46367185864705
 30
0.0
 10
247.0395144346645
 20
92.78662339431993
 30
0.0
 10
247.2722496169847
 20
93.37405102498143
 30
0.0
 11
244.272249616985
 21
91.20366343179982
 31
0.0
 11
246.3931539589623
 21
91.83965620159726
 31
0.0
 11
247.2722496169847
 21
93.37405102498143
 31
0.0
  0
SPLINE
  5
166
330
4E
100
AcDbEntity
  8
0
  6
Continuous
 62
     7
100
AcDbSpline
210
0.0
220
0.0
230
1.0
 70
     8
 71
     3
 72
     9
 73
     5
 74
     3
 42
0.000000001
 43
0.0000000001
 44
0.00000001
 40
0.0
 40
0.0
 40
0.0
 40
0.0
 40
1.768382491678936
 40
3.9825916088683
 40
3.9825916088683
 40
3.9825916088683
 40
3.9825916088683
 10
200.2722496169846
 20
93.37405102497603
 30
0.0
 10
200.5049847993049
 20
92.78662339431456
 30
0.0
 10
201.0291300075397
 20
91.46367185864179
 30
0.0
 10
202.4707495963973
 20
91.29656830656637
 30
0.0
 10
203.2722496169849
 20
91.2036634317951
 30
0.0
 11
200.2722496169846
 21
93.37405102497603
 31
0.0
 11
201.1513452750073
 21
91.83965620159206
 31
0.0
 11
203.2722496169849
 21
91.2036634317951
 31
0.0
  0
ENDBLK
  5
50
330
4E
100
AcDbEntity
  8
0
100
AcDbBlockEnd
  0
BLOCK
  5
4F6
330
4EF
100
AcDbEntity
  8
0
100
AcDbBlockBegin
  2
*D4
 70
     1
 10
0.0
 20
0.0
 30
0.0
  3
*D4
  1

  0
LINE
  5
4F0
330
4EF
100
AcDbEntity
  8
1
  6
Continuous
 62
     2
100
AcDbLine
 10
162.7588844990112
 20
57.6525777666228
 30
0.0
 11
32.6856165906396
 21
57.6525777666228
 31
0.0
  0
LINE
  5
4F1
330
4EF
100
AcDbEntity
  8
1
  6
Continuous
 62
     2
100
AcDbLine
 10
32.6856165906396
 20
98.80981330755053
 30
0.0
 11
32.6856165906396
 21
56.6525777666228
 31
0.0
  0
LINE
  5
4F2
330
4EF
100
AcDbEntity
  8
1
  6
Continuous
 62
     2
100
AcDbLine
 10
162.7588844990112
 20
98.80981330755053
 30
0.0
 11
162.7588844990112
 21
56.6525777666228
 31
0.0
  0
SOLID
  5
4F3
330
4EF
100
AcDbEntity
  8
1
 62
     2
100
AcDbTrace
 10
159.7588844990112
 20
57.25762027386061
 30
0.0
 11
159.7588844990112
 21
58.04753525938499
 31
0.0
 12
162.7588844990112
 22
57.6525777666228
 32
0.0
 13
162.7588844990112
 23
57.6525777666228
 33
0.0
  0
SOLID
  5
4F4
330
4EF
100
AcDbEntity
  8
1
 62
     2
100
AcDbTrace
 10
35.6856165906396
 20
58.04753525938499
 30
0.0
 11
35.6856165906396
 21
57.25762027386061
 31
0.0
 12
32.6856165906396
 22
57.6525777666228
 32
0.0
 13
32.6856165906396
 23
57.6525777666228
 33
0.0
  0
MTEXT
  5
4F5
330
4EF
100
AcDbEntity
  8
1
 62
     4
100
AcDbMText
 10
94.57225054482541
 20
59.6525777666228
 30
0.0
 40
3.0
 41
0.0
 71
     7
 72
     1
  1
130
  7
CONVERTER_13
 11
0.9999999999970619
 21
2.424068405545306E-6
 31
0.0
 73
     1
 44
0.60024009603842
  0
ENDBLK
  5
4F7
330
4EF
100
AcDbEntity
  8
0
100
AcDbBlockEnd
  0
BLOCK
  5
501
330
4FA
100
AcDbEntity
  8
0
100
AcDbBlockBegin
  2
*D5
 70
     1
 10
0.0
 20
0.0
 30
0.0
  3
*D5
  1

  0
LINE
  5
4FB
330
4FA
100
AcDbEntity
  8
1
  6
Continuous
 62
     2
100
AcDbLine
 10
22.2580601937797
 20
91.8098133075445
 30
0.0
 11
22.2580601937797
 21
155.3098133075471
 31
0.0
  0
LINE
  5
4FC
330
4FA
100
AcDbEntity
  8
1
  6
Continuous
 62
     2
100
AcDbLine
 10
72.47225054482507
 20
91.8098133075445
 30
0.0
 11
21.2580601937797
 21
91.8098133075445
 31
0.0
  0
LINE
  5
4FD
330
4FA
100
AcDbEntity
  8
1
  6
Continuous
 62
     2
100
AcDbLine
 10
79.22225054482536
 20
155.3098133075471
 30
0.0
 11
21.2580601937797
 21
155.3098133075471
 31
0.0
  0
SOLID
  5
4FE
330
4FA
100
AcDbEntity
  8
1
 62
     2
100
AcDbTrace
 10
21.86310270101751
 20
94.8098133075445
 30
0.0
 11
22.65301768654189
 21
94.8098133075445
 31
0.0
 12
22.2580601937797
 22
91.8098133075445
 32
0.0
 13
22.2580601937797
 23
91.8098133075445
 33
0.0
  0
SOLID
  5
4FF
330
4FA
100
AcDbEntity
  8
1
 62
     2
100
AcDbTrace
 10
22.65301768654189
 20
152.3098133075471
 30
0.0
 11
21.86310270101751
 21
152.3098133075471
 31
0.0
 12
22.2580601937797
 22
155.3098133075471
 32
0.0
 13
22.2580601937797
 23
155.3098133075471
 33
0.0
  0
MTEXT
  5
500
330
4FA
100
AcDbEntity
  8
1
 62
     4
100
AcDbMText
 10
19.9580601937797
 20
119.4348133075458
 30
0.0
 40
3.0
 41
0.0
 71
     7
 72
     1
  1
63,5
  7
CONVERTER_13
 11
0.0
 21
1.0
 31
0.0
 73
     1
 44
0.60024009603842
  0
ENDBLK
  5
502
330
4FA
100
AcDbEntity
  8
0
100
AcDbBlockEnd
  0
BLOCK
  5
50C
330
505
100
AcDbEntity
  8
0
100
AcDbBlockBegin
  2
*D6
 70
     1
 10
0.0
 20
0.0
 30
0.0
  3
*D6
  1

  0
LINE
  5
506
330
505
100
AcDbEntity
  8
1
  6
Continuous
 62
     2
100
AcDbLine
 10
252.7722496169869
 20
57.3501015892691
 30
0.0
 11
194.7722496169868
 21
57.3501015892691
 31
0.0
  0
LINE
  5
507
330
505
100
AcDbEntity
  8
1
  6
Continuous
 62
     2
100
AcDbLine
 10
252.7722496169869
 20
73.80981330755431
 30
0.0
 11
252.7722496169869
 21
56.3501015892691
 31
0.0
  0
LINE
  5
508
330
505
100
AcDbEntity
  8
1
  6
Continuous
 62
     2
100
AcDbLine
 10
194.7722496169868
 20
73.80981330754763
 30
0.0
 11
194.7722496169868
 21
56.3501015892691
 31
0.0
  0
SOLID
  5
509
330
505
100
AcDbEntity
  8
1
 62
     2
100
AcDbTrace
 10
249.7722496169869
 20
56.95514409650691
 30
0.0
 11
249.7722496169869
 21
57.74505908203129
 31
0.0
 12
252.7722496169869
 22
57.3501015892691
 32
0.0
 13
252.7722496169869
 23
57.3501015892691
 33
0.0
  0
SOLID
  5
50A
330
505
100
AcDbEntity
  8
1
 62
     2
100
AcDbTrace
 10
197.7722496169868
 20
57.74505908203129
 30
0.0
 11
197.7722496169868
 21
56.95514409650691
 31
0.0
 12
194.7722496169868
 22
57.3501015892691
 32
0.0
 13
194.7722496169868
 23
57.3501015892691
 33
0.0
  0
MTEXT
  5
50B
330
505
100
AcDbEntity
  8
1
 62
     4
100
AcDbMText
 10
221.5222496169868
 20
59.3501015892691
 30
0.0
 40
3.0
 41
0.0
 71
     7
 72
     1
  1
58
  7
CONVERTER_13
 11
0.9999999999970619
 21
2.424068405545306E-6
 31
0.0
 73
     1
 44
0.60024009603842
  0
ENDBLK
  5
50D
330
505
100
AcDbEntity
  8
0
100
AcDbBlockEnd
  0
BLOCK
  5
517
330
510
100
AcDbEntity
  8
0
100
AcDbBlockBegin
  2
*D7
 70
     1
 10
0.0
 20
0.0
 30
0.0
  3
*D7
  1

  0
LINE
  5
511
330
510
100
AcDbEntity
  8
1
  6
Continuous
 62
     2
100
AcDbLine
 10
81.72225054482536
 20
171.055845071225
 30
0.0
 11
113.7222505448254
 21
171.055845071225
 31
0.0
  0
LINE
  5
512
330
510
100
AcDbEntity
  8
1
  6
Continuous
 62
     2
100
AcDbLine
 10
81.72225054482536
 20
155.8098133075471
 30
0.0
 11
81.72225054482536
 21
172.055845071225
 31
0.0
  0
LINE
  5
513
330
510
100
AcDbEntity
  8
1
  6
Continuous
 62
     2
100
AcDbLine
 10
113.7222505448254
 20
155.9098133075473
 30
0.0
 11
113.7222505448254
 21
172.055845071225
 31
0.0
  0
SOLID
  5
514
330
510
100
AcDbEntity
  8
1
 62
     2
100
AcDbTrace
 10
84.72225054482536
 20
171.4508025639872
 30
0.0
 11
84.72225054482536
 21
170.6608875784628
 31
0.0
 12
81.72225054482536
 22
171.055845071225
 32
0.0
 13
81.72225054482536
 23
171.055845071225
 33
0.0
  0
SOLID
  5
515
330
510
100
AcDbEntity
  8
1
 62
     2
100
AcDbTrace
 10
110.7222505448254
 20
170.6608875784628
 30
0.0
 11
110.7222505448254
 21
171.4508025639872
 31
0.0
 12
113.7222505448254
 22
171.055845071225
 32
0.0
 13
113.7222505448254
 23
171.055845071225
 33
0.0
  0
MTEXT
  5
516
330
510
100
AcDbEntity
  8
1
 62
     4
100
AcDbMText
 10
93.82225054482538
 20
173.055845071225
 30
0.0
 40
3.0
 41
0.0
 71
     7
 72
     1
  1
M32
  7
CONVERTER_13
 11
0.9999999999970619
 21
2.424068405545306E-6
 31
0.0
 73
     1
 44
0.60024009603842
  0
ENDBLK
  5
518
330
510
100
AcDbEntity
  8
0
100
AcDbBlockEnd
  0
ENDSEC
  0
SECTION
  2
ENTITIES
  0
INSERT
  5
51
330
1F
100
AcDbEntity
  8
0
100
AcDbBlockReference
  2
A4_oriz
 10
291.8551065422054
 20
-0.23452093780543
 30
0.0
  0
INSERT
  5
52
330
1F
100
AcDbEntity
  8
0
100
AcDbBlockReference
  2
MFVN_16_G32_4
 10
194.772249616983
 20
74.30981330754751
 30
0.0
  0
LINE
  5
1C1
330
1F
100
AcDbEntity
  8
0
  6
Continuous
 62
     7
100
AcDbLine
 10
200.2722496169832
 20
106.8098133075445
 30
0.0
 11
194.772249616983
 21
106.8098133075438
 31
0.0
  0
LINE
  5
1C2
330
1F
100
AcDbEntity
  8
0
  6
Continuous
 62
     7
100
AcDbLine
 10
194.7722496169852
 20
88.15684651268451
 30
0.0
 11
194.7722496169852
 21
88.20981330754772
 31
0.0
  0
LINE
  5
1C3
330
1F
100
AcDbEntity
  8
0
  6
Continuous
 62
     7
100
AcDbLine
 10
194.7722496169852
 20
88.20981330754772
 30
0.0
 11
194.7722496169852
 21
88.30981330754771
 31
0.0
  0
LINE
  5
1C4
330
1F
100
AcDbEntity
  8
0
  6
Continuous
 62
     7
100
AcDbLine
 10
200.2722496169832
 20
106.8098133075445
 30
0.0
 11
200.2722496169833
 21
105.3863282196134
 31
0.0
  0
LINE
  5
1C5
330
1F
100
AcDbEntity
  8
0
  6
Continuous
 62
     7
100
AcDbLine
 10
194.772249616983
 20
106.8098133075438
 30
0.0
 11
194.7722496169833
 21
105.3863282196129
 31
0.0
  0
LINE
  5
1C6
330
1F
100
AcDbEntity
  8
0
  6
Continuous
 62
     7
100
AcDbLine
 10
194.7722496169833
 20
105.3863282196129
 30
0.0
 11
194.7722496169847
 21
91.83353027418023
 31
0.0
  0
LINE
  5
1C7
330
1F
100
AcDbEntity
  8
0
  6
Continuous
 62
     7
100
AcDbLine
 10
194.7722496169847
 20
91.83353027418023
 30
0.0
 11
194.772249616985
 21
90.40171433201952
 31
0.0
  0
LINE
  5
1C8
330
1F
100
AcDbEntity
  8
0
  6
Continuous
 62
     7
100
AcDbLine
 10
194.7722496169857
 20
84.80981330754871
 30
0.0
 11
216.2574438463318
 21
84.80981330755101
 31
0.0
  0
LINE
  5
1C9
330
1F
100
AcDbEntity
  8
0
  6
Continuous
 62
     7
100
AcDbLine
 10
194.772249616985
 20
90.40171433201952
 30
0.0
 11
194.7722496169852
 21
89.82524345251893
 31
0.0
  0
LINE
  5
1CA
330
1F
100
AcDbEntity
  8
0
  6
Continuous
 62
     7
100
AcDbLine
 10
216.2574438463318
 20
84.75981330755083
 30
0.0
 11
216.2574438463318
 21
84.80981330755101
 31
0.0
  0
LINE
  5
1CB
330
1F
100
AcDbEntity
  8
0
  6
Continuous
 62
     7
100
AcDbLine
 10
199.2963296497118
 20
84.75981330754892
 30
0.0
 11
199.2030785445296
 21
84.71715831504143
 31
0.0
  0
LINE
  5
1CC
330
1F
100
AcDbEntity
  8
0
  6
Continuous
 62
     7
100
AcDbLine
 10
199.3271581909626
 20
84.77391492268261
 30
0.0
 11
199.2963296497118
 21
84.75981330754892
 31
0.0
  0
LINE
  5
1CD
330
1F
100
AcDbEntity
  8
0
  6
Continuous
 62
     7
100
AcDbLine
 10
206.4701294515243
 20
84.77391492268343
 30
0.0
 11
206.439134356198
 21
84.75981330754972
 31
0.0
  0
LINE
  5
1CE
330
1F
100
AcDbEntity
  8
0
  6
Continuous
 62
     7
100
AcDbLine
 10
216.2574438463318
 20
84.75981330755083
 30
0.0
 11
206.4701294515243
 21
84.77391492268343
 31
0.0
  0
LINE
  5
1CF
330
1F
100
AcDbEntity
  8
0
  6
Continuous
 62
     7
100
AcDbLine
 10
206.439134356198
 20
84.75981330754972
 30
0.0
 11
199.3271581909626
 21
84.77391492268261
 31
0.0
  0
LINE
  5
1D0
330
1F
100
AcDbEntity
  8
0
  6
Continuous
 62
     7
100
AcDbLine
 10
216.2574438463322
 20
81.06551683063343
 30
0.0
 11
216.2574438463322
 21
82.04151255042451
 31
0.0
  0
LINE
  5
1D1
330
1F
100
AcDbEntity
  8
0
  6
Continuous
 62
     7
100
AcDbLine
 10
194.772249616986
 20
81.06900678030122
 30
0.0
 11
194.772249616986
 21
81.29595664106252
 31
0.0
  0
LINE
  5
1D2
330
1F
100
AcDbEntity
  8
0
  6
Continuous
 62
     7
100
AcDbLine
 10
194.7722496169859
 20
81.86281647939133
 30
0.0
 11
194.7722496169859
 21
82.03105970409531
 31
0.0
  0
LINE
  5
1D3
330
1F
100
AcDbEntity
  8
0
  6
Continuous
 62
     7
100
AcDbLine
 10
194.772249616986
 20
81.29595664106252
 30
0.0
 11
194.7722496169859
 21
81.86281647939133
 31
0.0
  0
LINE
  5
1D4
330
1F
100
AcDbEntity
  8
0
  6
Continuous
 62
     7
100
AcDbLine
 10
194.772249616986
 20
80.60227330754411
 30
0.0
 11
194.772249616986
 21
81.06900678030122
 31
0.0
  0
LINE
  5
1D5
330
1F
100
AcDbEntity
  8
0
  6
Continuous
 62
     7
100
AcDbLine
 10
194.772249616986
 20
80.11164088164661
 30
0.0
 11
194.772249616986
 21
80.60227330754411
 31
0.0
  0
LINE
  5
1D6
330
1F
100
AcDbEntity
  8
0
  6
Continuous
 62
     7
100
AcDbLine
 10
194.7722496169859
 20
82.03105970409531
 30
0.0
 11
194.7722496169858
 21
82.97907438718623
 31
0.0
  0
LINE
  5
1D7
330
1F
100
AcDbEntity
  8
0
  6
Continuous
 62
     7
100
AcDbLine
 10
216.757443846332
 20
84.15981330755092
 30
0.0
 11
216.757443846332
 21
82.25981330755123
 31
0.0
  0
LINE
  5
1D8
330
1F
100
AcDbEntity
  8
0
  6
Continuous
 62
     7
100
AcDbLine
 10
216.2574438463319
 20
82.97907438718862
 30
0.0
 11
194.7722496169858
 21
82.97907438718623
 31
0.0
  0
LINE
  5
1D9
330
1F
100
AcDbEntity
  8
0
  6
Continuous
 62
     7
100
AcDbLine
 10
194.7722496169859
 20
82.03105970409531
 30
0.0
 11
216.2574438463322
 21
82.04151255042451
 31
0.0
  0
LINE
  5
1DA
330
1F
100
AcDbEntity
  8
0
  6
Continuous
 62
     7
100
AcDbLine
 10
216.2574438463322
 20
81.06551683063343
 30
0.0
 11
194.772249616986
 21
81.06900678030122
 31
0.0
  0
LINE
  5
1DB
330
1F
100
AcDbEntity
  8
0
  6
Continuous
 62
     7
100
AcDbLine
 10
200.2722496169846
 20
93.37405102497603
 30
0.0
 11
200.2722496169833
 21
105.3863282196134
 31
0.0
  0
LINE
  5
1DC
330
1F
100
AcDbEntity
  8
0
  6
Continuous
 62
     7
100
AcDbLine
 10
194.7722496169852
 20
89.82524345251893
 30
0.0
 11
194.7722496169852
 21
88.30981330754771
 31
0.0
  0
LINE
  5
1DD
330
1F
100
AcDbEntity
  8
0
  6
Continuous
 62
     7
100
AcDbLine
 10
194.7722496169852
 20
88.30981330754771
 30
0.0
 11
200.2722496169853
 21
88.30981330754831
 31
0.0
  0
LINE
  5
1DE
330
1F
100
AcDbEntity
  8
0
  6
Continuous
 62
     7
100
AcDbLine
 10
252.7722496169869
 20
74.37793682636341
 30
0.0
 11
247.2722496169869
 21
74.37793682636281
 31
0.0
  0
LINE
  5
1DF
330
1F
100
AcDbEntity
  8
0
  6
Continuous
 62
     7
100
AcDbLine
 10
252.7722496169869
 20
74.37793682636341
 30
0.0
 11
252.7722496169869
 21
74.40981330755433
 31
0.0
  0
LINE
  5
1E0
330
1F
100
AcDbEntity
  8
0
  6
Continuous
 62
     7
100
AcDbLine
 10
252.7722496169868
 20
74.91499510405642
 30
0.0
 11
247.2722496169868
 21
74.91499510405582
 31
0.0
  0
LINE
  5
1E1
330
1F
100
AcDbEntity
  8
0
  6
Continuous
 62
     7
100
AcDbLine
 10
252.7722496169867
 20
75.94750220572193
 30
0.0
 11
247.2722496169867
 21
75.9475022057213
 31
0.0
  0
LINE
  5
1E2
330
1F
100
AcDbEntity
  8
0
  6
Continuous
 62
     7
100
AcDbLine
 10
247.2722496169864
 20
77.39546298325901
 30
0.0
 11
252.7722496169864
 21
77.39546298325972
 31
0.0
  0
LINE
  5
1E3
330
1F
100
AcDbEntity
  8
0
  6
Continuous
 62
     7
100
AcDbLine
 10
252.7722496169867
 20
75.94750220572193
 30
0.0
 11
252.7722496169867
 21
76.02410665003391
 31
0.0
  0
LINE
  5
1E4
330
1F
100
AcDbEntity
  8
0
  6
Continuous
 62
     7
100
AcDbLine
 10
252.7722496169868
 20
74.91499510405642
 30
0.0
 11
252.7722496169868
 21
75.00634964982062
 31
0.0
  0
LINE
  5
1E5
330
1F
100
AcDbEntity
  8
0
  6
Continuous
 62
     7
100
AcDbLine
 10
252.7722496169868
 20
74.67710760558013
 30
0.0
 11
252.7722496169868
 21
74.91499510405642
 31
0.0
  0
LINE
  5
1E6
330
1F
100
AcDbEntity
  8
0
  6
Continuous
 62
     7
100
AcDbLine
 10
252.7722496169868
 20
74.47696363323753
 30
0.0
 11
252.7722496169868
 21
74.58098143598623
 31
0.0
  0
LINE
  5
1E7
330
1F
100
AcDbEntity
  8
0
  6
Continuous
 62
     7
100
AcDbLine
 10
252.7722496169869
 20
74.40981330755433
 30
0.0
 11
252.7722496169868
 21
74.47696363323753
 31
0.0
  0
LINE
  5
1E8
330
1F
100
AcDbEntity
  8
0
  6
Continuous
 62
     7
100
AcDbLine
 10
252.7722496169864
 20
77.39546298325972
 30
0.0
 11
252.7722496169864
 21
77.45138227360682
 31
0.0
  0
LINE
  5
1E9
330
1F
100
AcDbEntity
  8
0
  6
Continuous
 62
     7
100
AcDbLine
 10
252.7722496169858
 20
83.89459880212483
 30
0.0
 11
252.7722496169858
 21
83.60838064279271
 31
0.0
  0
LINE
  5
1EA
330
1F
100
AcDbEntity
  8
0
  6
Continuous
 62
     7
100
AcDbLine
 10
252.7722496169859
 20
83.10981330754952
 30
0.0
 11
252.7722496169858
 21
83.45365284909563
 31
0.0
  0
LINE
  5
1EB
330
1F
100
AcDbEntity
  8
0
  6
Continuous
 62
     7
100
AcDbLine
 10
219.5864601653612
 20
82.85981330755122
 30
0.0
 11
219.0668449230908
 21
81.95981330755141
 31
0.0
  0
LINE
  5
1EC
330
1F
100
AcDbEntity
  8
0
  6
Continuous
 62
     7
100
AcDbLine
 10
219.7367378403344
 20
83.12010187584853
 30
0.0
 11
220.8625708652542
 21
82.47010187584873
 31
0.0
  0
LINE
  5
1ED
330
1F
100
AcDbEntity
  8
0
  6
Continuous
 62
     7
100
AcDbLine
 10
220.3370155153076
 20
81.55981330755161
 30
0.0
 11
219.5864601653612
 21
82.85981330755122
 31
0.0
  0
LINE
  5
1EE
330
1F
100
AcDbEntity
  8
0
  6
Continuous
 62
     7
100
AcDbLine
 10
220.8625708652542
 20
82.47010187584873
 30
0.0
 11
220.3370155153076
 21
81.55981330755161
 31
0.0
  0
LINE
  5
1EF
330
1F
100
AcDbEntity
  8
0
  6
Continuous
 62
     7
100
AcDbLine
 10
230.7870553876399
 20
83.15981330755291
 30
0.0
 11
230.78705538764
 21
81.25981330755293
 31
0.0
  0
LINE
  5
1F0
330
1F
100
AcDbEntity
  8
0
  6
Continuous
 62
     7
100
AcDbLine
 10
226.168253234123
 20
81.95981330755241
 30
0.0
 11
225.6486379918523
 21
82.85981330755213
 31
0.0
  0
LINE
  5
1F1
330
1F
100
AcDbEntity
  8
0
  6
Continuous
 62
     7
100
AcDbLine
 10
225.4176978841761
 20
84.15981330755191
 30
0.0
 11
226.6878684763937
 21
81.95981330755232
 31
0.0
  0
LINE
  5
1F2
330
1F
100
AcDbEntity
  8
0
  6
Continuous
 62
     7
100
AcDbLine
 10
225.6486379918523
 20
82.85981330755213
 30
0.0
 11
223.7722496169864
 21
79.60981330755222
 31
0.0
  0
LINE
  5
1F3
330
1F
100
AcDbEntity
  8
0
  6
Continuous
 62
     7
100
AcDbLine
 10
216.2574438463323
 20
79.14669434692622
 30
0.0
 11
216.2574438463323
 21
79.17759604636372
 31
0.0
  0
LINE
  5
1F4
330
1F
100
AcDbEntity
  8
0
  6
Continuous
 62
     7
100
AcDbLine
 10
200.2722496169863
 20
79.14669434692443
 30
0.0
 11
216.2574438463323
 21
79.14669434692622
 31
0.0
  0
LINE
  5
1F5
330
1F
100
AcDbEntity
  8
0
  6
Continuous
 62
     7
100
AcDbLine
 10
194.7722496169862
 20
79.14669434692381
 30
0.0
 11
197.2110649063978
 21
79.14669434692412
 31
0.0
  0
LINE
  5
1F6
330
1F
100
AcDbEntity
  8
0
  6
Continuous
 62
     7
100
AcDbLine
 10
197.2722496169863
 20
78.30981330754541
 30
0.0
 11
196.2722496169864
 21
78.30981330754533
 31
0.0
  0
LINE
  5
1F7
330
1F
100
AcDbEntity
  8
0
  6
Continuous
 62
     7
100
AcDbLine
 10
196.2722496169864
 20
78.30981330754533
 30
0.0
 11
195.5722496169864
 21
78.30981330754521
 31
0.0
  0
LINE
  5
1F8
330
1F
100
AcDbEntity
  8
0
  6
Continuous
 62
     7
100
AcDbLine
 10
216.7574438463322
 20
81.35981330755133
 30
0.0
 11
216.7574438463323
 21
79.45981330755161
 31
0.0
  0
LINE
  5
1F9
330
1F
100
AcDbEntity
  8
0
  6
Continuous
 62
     7
100
AcDbLine
 10
216.7574438463322
 20
81.35981330755133
 30
0.0
 11
218.9513748692531
 21
77.55981330755161
 31
0.0
  0
LINE
  5
1FA
330
1F
100
AcDbEntity
  8
0
  6
Continuous
 62
     7
100
AcDbLine
 10
194.7722496169863
 20
77.80981330754871
 30
0.0
 11
194.7722496169863
 21
78.24121528002483
 31
0.0
  0
LINE
  5
1FB
330
1F
100
AcDbEntity
  8
0
  6
Continuous
 62
     7
100
AcDbLine
 10
194.7722496169863
 20
78.28505239470373
 30
0.0
 11
194.7722496169863
 21
78.24121528002483
 31
0.0
  0
LINE
  5
1FC
330
1F
100
AcDbEntity
  8
0
  6
Continuous
 62
     7
100
AcDbLine
 10
194.7722496169862
 20
79.14669434692381
 30
0.0
 11
194.7722496169862
 21
79.17759604636133
 31
0.0
  0
LINE
  5
1FD
330
1F
100
AcDbEntity
  8
0
  6
Continuous
 62
     7
100
AcDbLine
 10
194.7722496169862
 20
79.17759604636133
 30
0.0
 11
194.7722496169862
 21
79.79179542542273
 31
0.0
  0
LINE
  5
1FE
330
1F
100
AcDbEntity
  8
0
  6
Continuous
 62
     7
100
AcDbLine
 10
194.7722496169862
 20
79.79179542542273
 30
0.0
 11
194.772249616986
 21
80.11164088164661
 31
0.0
  0
LINE
  5
1FF
330
1F
100
AcDbEntity
  8
0
  6
Continuous
 62
     7
100
AcDbLine
 10
195.5722496169864
 20
78.30981330754521
 30
0.0
 11
194.7722496169863
 21
78.28505239470373
 31
0.0
  0
LINE
  5
200
330
1F
100
AcDbEntity
  8
0
  6
Continuous
 62
     7
100
AcDbLine
 10
194.7722496169863
 20
78.28505239470373
 30
0.0
 11
194.7722496169862
 21
79.14669434692381
 31
0.0
  0
LINE
  5
201
330
1F
100
AcDbEntity
  8
0
  6
Continuous
 62
     7
100
AcDbLine
 10
197.2110649063978
 20
79.14669434692412
 30
0.0
 11
200.2722496169863
 21
79.14669434692443
 31
0.0
  0
LINE
  5
202
330
1F
100
AcDbEntity
  8
0
  6
Continuous
 62
     7
100
AcDbLine
 10
200.2722496169864
 20
78.30981330754453
 30
0.0
 11
197.2722496169863
 21
78.30981330754541
 31
0.0
  0
LINE
  5
203
330
1F
100
AcDbEntity
  8
0
  6
Continuous
 62
     7
100
AcDbLine
 10
216.2574438463326
 20
78.28505239470611
 30
0.0
 11
200.2722496169864
 21
78.30981330754453
 31
0.0
  0
LINE
  5
204
330
1F
100
AcDbEntity
  8
0
  6
Continuous
 62
     7
100
AcDbLine
 10
223.772249616986
 20
81.30981330755101
 30
0.0
 11
222.3000064305525
 21
80.45981330755181
 31
0.0
  0
LINE
  5
205
330
1F
100
AcDbEntity
  8
0
  6
Continuous
 62
     7
100
AcDbLine
 10
230.78705538764
 20
80.35981330755301
 30
0.0
 11
230.7870553876404
 21
78.45981330755303
 31
0.0
  0
LINE
  5
206
330
1F
100
AcDbEntity
  8
0
  6
Continuous
 62
     7
100
AcDbLine
 10
228.506521824341
 20
80.60981330755273
 30
0.0
 11
227.9869065820704
 21
81.50981330755262
 31
0.0
  0
LINE
  5
207
330
1F
100
AcDbEntity
  8
0
  6
Continuous
 62
     7
100
AcDbLine
 10
226.7456035033132
 20
77.55981330755252
 30
0.0
 11
228.506521824341
 21
80.60981330755273
 31
0.0
  0
LINE
  5
208
330
1F
100
AcDbEntity
  8
0
  6
Continuous
 62
     7
100
AcDbLine
 10
227.9869065820704
 20
81.50981330755262
 30
0.0
 11
225.7063730187719
 21
77.55981330755243
 31
0.0
  0
LINE
  5
209
330
1F
100
AcDbEntity
  8
0
  6
Continuous
 62
     7
100
AcDbLine
 10
219.0668449230908
 20
81.95981330755141
 30
0.0
 11
220.337015515308
 21
79.75981330755182
 31
0.0
  0
LINE
  5
20A
330
1F
100
AcDbEntity
  8
0
  6
Continuous
 62
     7
100
AcDbLine
 10
223.7722496169862
 20
80.49413886466853
 30
0.0
 11
223.7722496169864
 21
79.60981330755222
 31
0.0
  0
LINE
  5
20B
330
1F
100
AcDbEntity
  8
0
  6
Continuous
 62
     7
100
AcDbLine
 10
252.7722496169862
 20
80.11164088165332
 30
0.0
 11
231.2870553876402
 21
80.11164088165081
 31
0.0
  0
LINE
  5
20C
330
1F
100
AcDbEntity
  8
0
  6
Continuous
 62
     7
100
AcDbLine
 10
231.28705538764
 20
81.06551683063513
 30
0.0
 11
231.2870553876399
 21
82.04151255042622
 31
0.0
  0
LINE
  5
20D
330
1F
100
AcDbEntity
  8
0
  6
Continuous
 62
     7
100
AcDbLine
 10
219.4709901115238
 20
77.55981330755172
 30
0.0
 11
216.757443846332
 21
82.25981330755123
 31
0.0
  0
LINE
  5
20E
330
1F
100
AcDbEntity
  8
0
  6
Continuous
 62
     7
100
AcDbLine
 10
225.1867577765011
 20
77.55981330755243
 30
0.0
 11
227.727098960935
 21
81.95981330755252
 31
0.0
  0
LINE
  5
20F
330
1F
100
AcDbEntity
  8
0
  6
Continuous
 62
     7
100
AcDbLine
 10
223.6279120496892
 20
77.55981330755223
 30
0.0
 11
226.168253234123
 21
81.95981330755241
 31
0.0
  0
LINE
  5
210
330
1F
100
AcDbEntity
  8
0
  6
Continuous
 62
     7
100
AcDbLine
 10
216.757443846332
 20
84.15981330755092
 30
0.0
 11
220.567955622984
 21
77.55981330755183
 31
0.0
  0
LINE
  5
211
330
1F
100
AcDbEntity
  8
0
  6
Continuous
 62
     7
100
AcDbLine
 10
221.0875708652547
 20
77.55981330755192
 30
0.0
 11
216.7574438463318
 21
85.05981330755132
 31
0.0
  0
LINE
  5
212
330
1F
100
AcDbEntity
  8
0
  6
Continuous
 62
     7
100
AcDbLine
 10
252.7722496169869
 20
74.30981330755431
 30
0.0
 11
247.2722496169871
 21
74.30981330754982
 31
0.0
  0
LINE
  5
213
330
1F
100
AcDbEntity
  8
0
  6
Continuous
 62
     7
100
AcDbLine
 10
194.7722496169864
 20
76.62589906303621
 30
0.0
 11
252.7722496169867
 21
76.62589906304281
 31
0.0
  0
LINE
  5
214
330
1F
100
AcDbEntity
  8
0
  6
Continuous
 62
     7
100
AcDbLine
 10
252.7722496169868
 20
75.00634964982062
 30
0.0
 11
252.7722496169868
 21
75.37347663445972
 31
0.0
  0
LINE
  5
215
330
1F
100
AcDbEntity
  8
0
  6
Continuous
 62
     7
100
AcDbLine
 10
252.7722496169867
 20
76.02410665003391
 30
0.0
 11
252.7722496169867
 21
76.62589906304281
 31
0.0
  0
LINE
  5
216
330
1F
100
AcDbEntity
  8
0
  6
Continuous
 62
     7
100
AcDbLine
 10
252.7722496169864
 20
77.45138227360682
 30
0.0
 11
252.7722496169864
 21
77.80981330755533
 31
0.0
  0
LINE
  5
217
330
1F
100
AcDbEntity
  8
0
  6
Continuous
 62
     7
100
AcDbLine
 10
252.7722496169867
 20
76.69281212367882
 30
0.0
 11
252.7722496169864
 21
77.39546298325972
 31
0.0
  0
LINE
  5
218
330
1F
100
AcDbEntity
  8
0
  6
Continuous
 62
     7
100
AcDbLine
 10
252.7722496169867
 20
75.45828144407541
 30
0.0
 11
252.7722496169867
 21
75.94750220572193
 31
0.0
  0
LINE
  5
219
330
1F
100
AcDbEntity
  8
0
  6
Continuous
 62
     7
100
AcDbLine
 10
231.2870553876404
 20
78.24121528002892
 30
0.0
 11
252.7722496169864
 21
78.24121528003143
 31
0.0
  0
LINE
  5
21A
330
1F
100
AcDbEntity
  8
0
  6
Continuous
 62
     7
100
AcDbLine
 10
194.7722496169867
 20
75.37347663445313
 30
0.0
 11
252.7722496169868
 21
75.37347663445972
 31
0.0
  0
LINE
  5
21B
330
1F
100
AcDbEntity
  8
0
  6
Continuous
 62
     7
100
AcDbLine
 10
252.7722496169868
 20
74.58098143598623
 30
0.0
 11
194.7722496169868
 21
74.58098143597961
 31
0.0
  0
LINE
  5
21C
330
1F
100
AcDbEntity
  8
0
  6
Continuous
 62
     7
100
AcDbLine
 10
200.2722496169869
 20
74.37793682635741
 30
0.0
 11
194.7722496169868
 21
74.37793682635682
 31
0.0
  0
LINE
  5
21D
330
1F
100
AcDbEntity
  8
0
  6
Continuous
 62
     7
100
AcDbLine
 10
247.2722496169869
 20
74.37793682636281
 30
0.0
 11
200.2722496169869
 21
74.37793682635741
 31
0.0
  0
LINE
  5
21E
330
1F
100
AcDbEntity
  8
0
  6
Continuous
 62
     7
100
AcDbLine
 10
200.2722496169869
 20
74.30981330754751
 30
0.0
 11
194.7722496169868
 21
74.30981330754763
 31
0.0
  0
LINE
  5
21F
330
1F
100
AcDbEntity
  8
0
  6
Continuous
 62
     7
100
AcDbLine
 10
203.2722496169869
 20
74.30981330754783
 30
0.0
 11
200.2722496169869
 21
74.30981330754751
 31
0.0
  0
LINE
  5
220
330
1F
100
AcDbEntity
  8
0
  6
Continuous
 62
     7
100
AcDbLine
 10
247.2722496169871
 20
74.30981330754982
 30
0.0
 11
244.2722496169869
 21
74.30981330755252
 31
0.0
  0
LINE
  5
221
330
1F
100
AcDbEntity
  8
0
  6
Continuous
 62
     7
100
AcDbLine
 10
244.2722496169869
 20
74.30981330755252
 30
0.0
 11
203.2722496169869
 21
74.30981330754783
 31
0.0
  0
LINE
  5
222
330
1F
100
AcDbEntity
  8
0
  6
Continuous
 62
     7
100
AcDbLine
 10
194.7722496169868
 20
74.37793682635682
 30
0.0
 11
194.7722496169868
 21
74.40981330754762
 31
0.0
  0
LINE
  5
223
330
1F
100
AcDbEntity
  8
0
  6
Continuous
 62
     7
100
AcDbLine
 10
194.7722496169868
 20
74.30981330754763
 30
0.0
 11
194.7722496169868
 21
74.37793682635682
 31
0.0
  0
LINE
  5
224
330
1F
100
AcDbEntity
  8
0
  6
Continuous
 62
     7
100
AcDbLine
 10
252.7722496169869
 20
74.30981330755431
 30
0.0
 11
252.7722496169869
 21
74.37793682636341
 31
0.0
  0
LINE
  5
225
330
1F
100
AcDbEntity
  8
0
  6
Continuous
 62
     7
100
AcDbLine
 10
194.7722496169867
 20
74.91499510404971
 30
0.0
 11
194.7722496169867
 21
75.00634964981403
 31
0.0
  0
LINE
  5
226
330
1F
100
AcDbEntity
  8
0
  6
Continuous
 62
     7
100
AcDbLine
 10
194.7722496169868
 20
74.67710760557351
 30
0.0
 11
194.7722496169868
 21
74.58098143597961
 31
0.0
  0
LINE
  5
227
330
1F
100
AcDbEntity
  8
0
  6
Continuous
 62
     7
100
AcDbLine
 10
194.7722496169868
 20
74.67710760557351
 30
0.0
 11
194.7722496169867
 21
74.91499510404971
 31
0.0
  0
LINE
  5
228
330
1F
100
AcDbEntity
  8
0
  6
Continuous
 62
     7
100
AcDbLine
 10
247.2722496169868
 20
74.91499510405582
 30
0.0
 11
200.2722496169869
 21
74.91499510405042
 31
0.0
  0
LINE
  5
229
330
1F
100
AcDbEntity
  8
0
  6
Continuous
 62
     7
100
AcDbLine
 10
194.7722496169867
 20
75.45828144406873
 30
0.0
 11
194.7722496169866
 21
75.94750220571531
 31
0.0
  0
LINE
  5
22A
330
1F
100
AcDbEntity
  8
0
  6
Continuous
 62
     7
100
AcDbLine
 10
194.7722496169867
 20
75.00634964981403
 30
0.0
 11
194.7722496169867
 21
75.37347663445313
 31
0.0
  0
LINE
  5
22B
330
1F
100
AcDbEntity
  8
0
  6
Continuous
 62
     7
100
AcDbLine
 10
194.7722496169867
 20
75.45828144406873
 30
0.0
 11
194.7722496169867
 21
75.37347663445313
 31
0.0
  0
LINE
  5
22C
330
1F
100
AcDbEntity
  8
0
  6
Continuous
 62
     7
100
AcDbLine
 10
200.2722496169869
 20
74.91499510405042
 30
0.0
 11
194.7722496169867
 21
74.91499510404971
 31
0.0
  0
LINE
  5
22D
330
1F
100
AcDbEntity
  8
0
  6
Continuous
 62
     7
100
AcDbLine
 10
252.7722496169867
 20
76.69281212367882
 30
0.0
 11
252.7722496169867
 21
76.62589906304281
 31
0.0
  0
LINE
  5
22E
330
1F
100
AcDbEntity
  8
0
  6
Continuous
 62
     7
100
AcDbLine
 10
252.7722496169867
 20
75.45828144407541
 30
0.0
 11
252.7722496169868
 21
75.37347663445972
 31
0.0
  0
LINE
  5
22F
330
1F
100
AcDbEntity
  8
0
  6
Continuous
 62
     7
100
AcDbLine
 10
194.7722496169866
 20
76.02410665002732
 30
0.0
 11
194.7722496169864
 21
76.62589906303621
 31
0.0
  0
LINE
  5
230
330
1F
100
AcDbEntity
  8
0
  6
Continuous
 62
     7
100
AcDbLine
 10
194.7722496169864
 20
76.69281212367211
 30
0.0
 11
194.7722496169864
 21
76.62589906303621
 31
0.0
  0
LINE
  5
231
330
1F
100
AcDbEntity
  8
0
  6
Continuous
 62
     7
100
AcDbLine
 10
194.7722496169866
 20
75.94750220571531
 30
0.0
 11
194.7722496169866
 21
76.02410665002732
 31
0.0
  0
LINE
  5
232
330
1F
100
AcDbEntity
  8
0
  6
Continuous
 62
     7
100
AcDbLine
 10
200.2722496169867
 20
75.9475022057159
 30
0.0
 11
194.7722496169866
 21
75.94750220571531
 31
0.0
  0
LINE
  5
233
330
1F
100
AcDbEntity
  8
0
  6
Continuous
 62
     7
100
AcDbLine
 10
194.7722496169867
 20
75.45828144406873
 30
0.0
 11
252.7722496169867
 21
75.45828144407541
 31
0.0
  0
LINE
  5
234
330
1F
100
AcDbEntity
  8
0
  6
Continuous
 62
     7
100
AcDbLine
 10
247.2722496169867
 20
75.9475022057213
 30
0.0
 11
200.2722496169867
 21
75.9475022057159
 31
0.0
  0
LINE
  5
235
330
1F
100
AcDbEntity
  8
0
  6
Continuous
 62
     7
100
AcDbLine
 10
252.7722496169868
 20
74.67710760558013
 30
0.0
 11
252.7722496169868
 21
74.58098143598623
 31
0.0
  0
LINE
  5
236
330
1F
100
AcDbEntity
  8
0
  6
Continuous
 62
     7
100
AcDbLine
 10
194.7722496169868
 20
74.40981330754762
 30
0.0
 11
194.7722496169868
 21
74.47696363323091
 31
0.0
  0
LINE
  5
237
330
1F
100
AcDbEntity
  8
0
  6
Continuous
 62
     7
100
AcDbLine
 10
194.7722496169868
 20
74.47696363323091
 30
0.0
 11
194.7722496169868
 21
74.58098143597961
 31
0.0
  0
LINE
  5
238
330
1F
100
AcDbEntity
  8
0
  6
Continuous
 62
     7
100
AcDbLine
 10
194.7722496169868
 20
74.67710760557351
 30
0.0
 11
252.7722496169868
 21
74.67710760558013
 31
0.0
  0
LINE
  5
239
330
1F
100
AcDbEntity
  8
0
  6
Continuous
 62
     7
100
AcDbLine
 10
223.6279120496892
 20
77.55981330755223
 30
0.0
 11
224.1475272919597
 21
77.55981330755223
 31
0.0
  0
LINE
  5
23A
330
1F
100
AcDbEntity
  8
0
  6
Continuous
 62
     7
100
AcDbLine
 10
225.1867577765011
 20
77.55981330755243
 30
0.0
 11
225.7063730187719
 21
77.55981330755243
 31
0.0
  0
LINE
  5
23B
330
1F
100
AcDbEntity
  8
0
  6
Continuous
 62
     7
100
AcDbLine
 10
226.7456035033132
 20
77.55981330755252
 30
0.0
 11
230.7870553876404
 21
77.55981330755303
 31
0.0
  0
LINE
  5
23C
330
1F
100
AcDbEntity
  8
0
  6
Continuous
 62
     7
100
AcDbLine
 10
221.0875708652547
 20
77.55981330755192
 30
0.0
 11
222.8722496169866
 21
77.55981330755212
 31
0.0
  0
LINE
  5
23D
330
1F
100
AcDbEntity
  8
0
  6
Continuous
 62
     7
100
AcDbLine
 10
222.8722496169862
 20
79.75096758074001
 30
0.0
 11
222.8722496169866
 21
77.55981330755212
 31
0.0
  0
LINE
  5
23E
330
1F
100
AcDbEntity
  8
0
  6
Continuous
 62
     7
100
AcDbLine
 10
231.2870553876404
 20
78.24121528002892
 30
0.0
 11
231.2870553876404
 21
78.28505239470782
 31
0.0
  0
LINE
  5
23F
330
1F
100
AcDbEntity
  8
0
  6
Continuous
 62
     7
100
AcDbLine
 10
231.2870553876404
 20
77.45138227360432
 30
0.0
 11
231.2870553876404
 21
78.24121528002892
 31
0.0
  0
LINE
  5
240
330
1F
100
AcDbEntity
  8
0
  6
Continuous
 62
     7
100
AcDbLine
 10
220.5968231364433
 20
79.30981330755172
 30
0.0
 11
220.9746543527946
 21
78.65539044414582
 31
0.0
  0
LINE
  5
241
330
1F
100
AcDbEntity
  8
0
  6
Continuous
 62
     7
100
AcDbLine
 10
231.2870553876404
 20
79.17759604636542
 30
0.0
 11
231.2870553876402
 21
80.11164088165081
 31
0.0
  0
LINE
  5
242
330
1F
100
AcDbEntity
  8
0
  6
Continuous
 62
     7
100
AcDbLine
 10
220.9746543527946
 20
78.65539044414582
 30
0.0
 11
222.8722496169862
 21
79.75096758074001
 31
0.0
  0
LINE
  5
243
330
1F
100
AcDbEntity
  8
0
  6
Continuous
 62
     7
100
AcDbLine
 10
194.7722496169864
 20
76.69281212367211
 30
0.0
 11
252.7722496169867
 21
76.69281212367882
 31
0.0
  0
LINE
  5
244
330
1F
100
AcDbEntity
  8
0
  6
Continuous
 62
     7
100
AcDbLine
 10
247.2722496169864
 20
78.30981330754982
 30
0.0
 11
231.2870553876404
 21
78.28505239470782
 31
0.0
  0
LINE
  5
245
330
1F
100
AcDbEntity
  8
0
  6
Continuous
 62
     7
100
AcDbLine
 10
194.7722496169864
 20
77.45138227360023
 30
0.0
 11
194.7722496169863
 21
77.80981330754871
 31
0.0
  0
LINE
  5
246
330
1F
100
AcDbEntity
  8
0
  6
Continuous
 62
     7
100
AcDbLine
 10
216.7574438463327
 20
77.55981330755141
 30
0.0
 11
217.334794115522
 21
77.55981330755141
 31
0.0
  0
LINE
  5
247
330
1F
100
AcDbEntity
  8
0
  6
Continuous
 62
     7
100
AcDbLine
 10
216.7574438463323
 20
78.55981330755132
 30
0.0
 11
216.7574438463327
 21
77.55981330755141
 31
0.0
  0
LINE
  5
248
330
1F
100
AcDbEntity
  8
0
  6
Continuous
 62
     7
100
AcDbLine
 10
216.7574438463323
 20
78.55981330755132
 30
0.0
 11
217.334794115522
 21
77.55981330755141
 31
0.0
  0
LINE
  5
249
330
1F
100
AcDbEntity
  8
0
  6
Continuous
 62
     7
100
AcDbLine
 10
217.8544093577929
 20
77.55981330755152
 30
0.0
 11
216.7574438463323
 21
79.45981330755161
 31
0.0
  0
LINE
  5
24A
330
1F
100
AcDbEntity
  8
0
  6
Continuous
 62
     7
100
AcDbLine
 10
200.2722496169866
 20
77.39546298325372
 30
0.0
 11
216.2574438463327
 21
77.39546298325551
 31
0.0
  0
LINE
  5
24B
330
1F
100
AcDbEntity
  8
0
  6
Continuous
 62
     7
100
AcDbLine
 10
216.2574438463327
 20
77.45138227360262
 30
0.0
 11
216.2574438463326
 21
78.24121528002722
 31
0.0
  0
LINE
  5
24C
330
1F
100
AcDbEntity
  8
0
  6
Continuous
 62
     7
100
AcDbLine
 10
197.1823670867618
 20
77.39546298325341
 30
0.0
 11
200.2722496169866
 21
77.39546298325372
 31
0.0
  0
LINE
  5
24D
330
1F
100
AcDbEntity
  8
0
  6
Continuous
 62
     7
100
AcDbLine
 10
194.7722496169864
 20
77.39546298325313
 30
0.0
 11
197.1823670867618
 21
77.39546298325341
 31
0.0
  0
LINE
  5
24E
330
1F
100
AcDbEntity
  8
0
  6
Continuous
 62
     7
100
AcDbLine
 10
194.7722496169864
 20
77.39546298325313
 30
0.0
 11
194.7722496169864
 21
77.45138227360023
 31
0.0
  0
LINE
  5
24F
330
1F
100
AcDbEntity
  8
0
  6
Continuous
 62
     7
100
AcDbLine
 10
194.7722496169864
 20
76.69281212367211
 30
0.0
 11
194.7722496169864
 21
77.39546298325313
 31
0.0
  0
LINE
  5
250
330
1F
100
AcDbEntity
  8
0
  6
Continuous
 62
     7
100
AcDbLine
 10
216.2574438463327
 20
77.39546298325551
 30
0.0
 11
216.2574438463327
 21
77.45138227360262
 31
0.0
  0
LINE
  5
251
330
1F
100
AcDbEntity
  8
0
  6
Continuous
 62
     7
100
AcDbLine
 10
217.8544093577929
 20
77.55981330755152
 30
0.0
 11
218.9513748692531
 21
77.55981330755161
 31
0.0
  0
LINE
  5
252
330
1F
100
AcDbEntity
  8
0
  6
Continuous
 62
     7
100
AcDbLine
 10
216.2574438463323
 20
80.11164088164902
 30
0.0
 11
194.772249616986
 21
80.11164088164661
 31
0.0
  0
LINE
  5
253
330
1F
100
AcDbEntity
  8
0
  6
Continuous
 62
     7
100
AcDbLine
 10
216.2574438463326
 20
78.28505239470611
 30
0.0
 11
216.2574438463326
 21
78.24121528002722
 31
0.0
  0
LINE
  5
254
330
1F
100
AcDbEntity
  8
0
  6
Continuous
 62
     7
100
AcDbLine
 10
216.2574438463323
 20
79.17759604636372
 30
0.0
 11
216.2574438463323
 21
80.11164088164902
 31
0.0
  0
LINE
  5
255
330
1F
100
AcDbEntity
  8
0
  6
Continuous
 62
     7
100
AcDbLine
 10
219.4709901115238
 20
77.55981330755172
 30
0.0
 11
220.567955622984
 21
77.55981330755183
 31
0.0
  0
LINE
  5
256
330
1F
100
AcDbEntity
  8
0
  6
Continuous
 62
     7
100
AcDbLine
 10
194.7722496169863
 20
78.24121528002483
 30
0.0
 11
216.2574438463326
 21
78.24121528002722
 31
0.0
  0
LINE
  5
257
330
1F
100
AcDbEntity
  8
0
  6
Continuous
 62
     7
100
AcDbLine
 10
252.7722496169832
 20
106.8098133075504
 30
0.0
 11
252.7722496169833
 21
105.3863282196195
 31
0.0
  0
LINE
  5
258
330
1F
100
AcDbEntity
  8
0
  6
Continuous
 62
     7
100
AcDbLine
 10
200.2722496169853
 20
88.30981330754831
 30
0.0
 11
252.7722496169853
 21
88.30981330755431
 31
0.0
  0
LINE
  5
259
330
1F
100
AcDbEntity
  8
0
  6
Continuous
 62
     7
100
AcDbLine
 10
203.2722496169849
 20
91.2036634317951
 30
0.0
 11
244.272249616985
 21
91.20366343179982
 31
0.0
  0
LINE
  5
25A
330
1F
100
AcDbEntity
  8
0
  6
Continuous
 62
     7
100
AcDbLine
 10
223.7722496169862
 20
80.70284043351653
 30
0.0
 11
223.7722496169862
 21
80.49413886466853
 31
0.0
  0
LINE
  5
25B
330
1F
100
AcDbEntity
  8
0
  6
Continuous
 62
     7
100
AcDbLine
 10
223.772249616986
 20
81.30981330755101
 30
0.0
 11
223.7722496169862
 21
80.70284043351653
 31
0.0
  0
LINE
  5
25C
330
1F
100
AcDbEntity
  8
0
  6
Continuous
 62
     7
100
AcDbLine
 10
222.3000064305525
 20
80.45981330755181
 30
0.0
 11
224.9558176688243
 21
85.05981330755223
 31
0.0
  0
LINE
  5
25D
330
1F
100
AcDbEntity
  8
0
  6
Continuous
 62
     7
100
AcDbLine
 10
231.2870553876404
 20
79.14669434692793
 30
0.0
 11
247.2722496169864
 21
79.14669434692983
 31
0.0
  0
LINE
  5
25E
330
1F
100
AcDbEntity
  8
0
  6
Continuous
 62
     7
100
AcDbLine
 10
231.2870553876404
 20
79.14669434692793
 30
0.0
 11
231.2870553876404
 21
79.17759604636542
 31
0.0
  0
LINE
  5
25F
330
1F
100
AcDbEntity
  8
0
  6
Continuous
 62
     7
100
AcDbLine
 10
230.78705538764
 20
81.25981330755293
 30
0.0
 11
228.5931243647193
 21
85.05981330755212
 31
0.0
  0
LINE
  5
260
330
1F
100
AcDbEntity
  8
0
  6
Continuous
 62
     7
100
AcDbLine
 10
228.0735091224484
 20
85.05981330755252
 30
0.0
 11
230.78705538764
 21
80.35981330755301
 31
0.0
  0
LINE
  5
261
330
1F
100
AcDbEntity
  8
0
  6
Continuous
 62
     7
100
AcDbLine
 10
231.2870553876404
 20
77.39546298325722
 30
0.0
 11
231.2870553876404
 21
77.45138227360432
 31
0.0
  0
LINE
  5
262
330
1F
100
AcDbEntity
  8
0
  6
Continuous
 62
     7
100
AcDbLine
 10
252.772249616986
 20
81.06900678030782
 30
0.0
 11
231.28705538764
 21
81.06551683063513
 31
0.0
  0
LINE
  5
263
330
1F
100
AcDbEntity
  8
0
  6
Continuous
 62
     7
100
AcDbLine
 10
231.2870553876399
 20
82.04151255042622
 30
0.0
 11
252.772249616986
 21
82.0310597041019
 31
0.0
  0
LINE
  5
264
330
1F
100
AcDbEntity
  8
0
  6
Continuous
 62
     7
100
AcDbLine
 10
227.727098960935
 20
81.95981330755252
 30
0.0
 11
225.9950481533661
 21
84.95981330755232
 31
0.0
  0
LINE
  5
265
330
1F
100
AcDbEntity
  8
0
  6
Continuous
 62
     7
100
AcDbLine
 10
226.6878684763937
 20
81.95981330755232
 30
0.0
 11
224.1475272919597
 21
77.55981330755223
 31
0.0
  0
LINE
  5
266
330
1F
100
AcDbEntity
  8
0
  6
Continuous
 62
     7
100
AcDbLine
 10
231.2870553876404
 20
77.39546298325722
 30
0.0
 11
247.2722496169864
 21
77.39546298325901
 31
0.0
  0
LINE
  5
267
330
1F
100
AcDbEntity
  8
0
  6
Continuous
 62
     7
100
AcDbLine
 10
252.7722496169864
 20
78.30981330755172
 30
0.0
 11
251.9722496169864
 21
78.30981330755161
 31
0.0
  0
LINE
  5
268
330
1F
100
AcDbEntity
  8
0
  6
Continuous
 62
     7
100
AcDbLine
 10
230.7870553876404
 20
78.45981330755303
 30
0.0
 11
226.9765436109884
 21
85.05981330755203
 31
0.0
  0
LINE
  5
269
330
1F
100
AcDbEntity
  8
0
  6
Continuous
 62
     7
100
AcDbLine
 10
226.4569283687178
 20
85.05981330755192
 30
0.0
 11
230.7870553876404
 21
77.55981330755303
 31
0.0
  0
LINE
  5
26A
330
1F
100
AcDbEntity
  8
0
  6
Continuous
 62
     7
100
AcDbLine
 10
223.9165871842826
 20
85.05981330755161
 30
0.0
 11
220.5968231364433
 21
79.30981330755172
 31
0.0
  0
LINE
  5
26B
330
1F
100
AcDbEntity
  8
0
  6
Continuous
 62
     7
100
AcDbLine
 10
220.337015515308
 20
79.75981330755182
 30
0.0
 11
223.3969719420121
 21
85.05981330755161
 31
0.0
  0
LINE
  5
26C
330
1F
100
AcDbEntity
  8
0
  6
Continuous
 62
     7
100
AcDbLine
 10
252.7722496169832
 20
106.8098133075504
 30
0.0
 11
247.2722496169832
 21
106.8098133075498
 31
0.0
  0
LINE
  5
26D
330
1F
100
AcDbEntity
  8
0
  6
Continuous
 62
     7
100
AcDbLine
 10
252.7722496169851
 20
89.82524345252561
 30
0.0
 11
252.7722496169853
 21
88.30981330755431
 31
0.0
  0
LINE
  5
26E
330
1F
100
AcDbEntity
  8
0
  6
Continuous
 62
     7
100
AcDbLine
 10
252.7722496169853
 20
88.15684651269113
 30
0.0
 11
252.7722496169853
 21
88.20981330755431
 31
0.0
  0
LINE
  5
26F
330
1F
100
AcDbEntity
  8
0
  6
Continuous
 62
     7
100
AcDbLine
 10
252.7722496169853
 20
88.20981330755431
 30
0.0
 11
252.7722496169853
 21
88.30981330755431
 31
0.0
  0
LINE
  5
270
330
1F
100
AcDbEntity
  8
0
  6
Continuous
 62
     7
100
AcDbLine
 10
252.7722496169853
 20
88.05903175261783
 30
0.0
 11
252.7722496169853
 21
88.15684651269113
 31
0.0
  0
LINE
  5
271
330
1F
100
AcDbEntity
  8
0
  6
Continuous
 62
     7
100
AcDbLine
 10
250.333434327575
 20
79.14669434693012
 30
0.0
 11
252.7722496169864
 21
79.14669434693043
 31
0.0
  0
LINE
  5
272
330
1F
100
AcDbEntity
  8
0
  6
Continuous
 62
     7
100
AcDbLine
 10
251.2722496169864
 20
78.30981330755152
 30
0.0
 11
251.9722496169864
 21
78.30981330755161
 31
0.0
  0
LINE
  5
273
330
1F
100
AcDbEntity
  8
0
  6
Continuous
 62
     7
100
AcDbLine
 10
252.7722496169851
 20
90.40171433202623
 30
0.0
 11
252.7722496169851
 21
89.82524345252561
 31
0.0
  0
LINE
  5
274
330
1F
100
AcDbEntity
  8
0
  6
Continuous
 62
     7
100
AcDbLine
 10
252.772249616985
 20
91.83353027418683
 30
0.0
 11
252.7722496169851
 21
90.40171433202623
 31
0.0
  0
LINE
  5
275
330
1F
100
AcDbEntity
  8
0
  6
Continuous
 62
     7
100
AcDbLine
 10
247.2722496169864
 20
79.14669434692983
 30
0.0
 11
250.333434327575
 21
79.14669434693012
 31
0.0
  0
LINE
  5
276
330
1F
100
AcDbEntity
  8
0
  6
Continuous
 62
     7
100
AcDbLine
 10
250.2722496169864
 20
78.30981330755141
 30
0.0
 11
247.2722496169864
 21
78.30981330754982
 31
0.0
  0
LINE
  5
277
330
1F
100
AcDbEntity
  8
0
  6
Continuous
 62
     7
100
AcDbLine
 10
252.7722496169864
 20
77.80981330755533
 30
0.0
 11
252.7722496169864
 21
78.24121528003143
 31
0.0
  0
LINE
  5
278
330
1F
100
AcDbEntity
  8
0
  6
Continuous
 62
     7
100
AcDbLine
 10
252.7722496169862
 20
80.60227330755082
 30
0.0
 11
252.772249616986
 21
81.06900678030782
 31
0.0
  0
LINE
  5
279
330
1F
100
AcDbEntity
  8
0
  6
Continuous
 62
     7
100
AcDbLine
 10
252.7722496169864
 20
79.14669434693043
 30
0.0
 11
252.7722496169864
 21
79.17759604636792
 31
0.0
  0
LINE
  5
27A
330
1F
100
AcDbEntity
  8
0
  6
Continuous
 62
     7
100
AcDbLine
 10
252.7722496169864
 20
79.17759604636792
 30
0.0
 11
252.7722496169862
 21
79.79179542542941
 31
0.0
  0
LINE
  5
27B
330
1F
100
AcDbEntity
  8
0
  6
Continuous
 62
     7
100
AcDbLine
 10
252.7722496169862
 20
79.79179542542941
 30
0.0
 11
252.7722496169862
 21
80.11164088165332
 31
0.0
  0
LINE
  5
27C
330
1F
100
AcDbEntity
  8
0
  6
Continuous
 62
     7
100
AcDbLine
 10
252.7722496169862
 20
80.11164088165332
 30
0.0
 11
252.7722496169862
 21
80.60227330755082
 31
0.0
  0
LINE
  5
27D
330
1F
100
AcDbEntity
  8
0
  6
Continuous
 62
     7
100
AcDbLine
 10
252.7722496169864
 20
78.30981330755172
 30
0.0
 11
252.7722496169864
 21
78.24121528003143
 31
0.0
  0
LINE
  5
27E
330
1F
100
AcDbEntity
  8
0
  6
Continuous
 62
     7
100
AcDbLine
 10
252.772249616986
 20
81.06900678030782
 30
0.0
 11
252.772249616986
 21
81.29595664106903
 31
0.0
  0
LINE
  5
27F
330
1F
100
AcDbEntity
  8
0
  6
Continuous
 62
     7
100
AcDbLine
 10
252.772249616986
 20
81.86281647939772
 30
0.0
 11
252.772249616986
 21
82.0310597041019
 31
0.0
  0
LINE
  5
280
330
1F
100
AcDbEntity
  8
0
  6
Continuous
 62
     7
100
AcDbLine
 10
252.772249616986
 20
81.29595664106903
 30
0.0
 11
252.772249616986
 21
81.86281647939772
 31
0.0
  0
LINE
  5
281
330
1F
100
AcDbEntity
  8
0
  6
Continuous
 62
     7
100
AcDbLine
 10
252.7722496169864
 20
78.30981330755172
 30
0.0
 11
252.7722496169864
 21
79.14669434693043
 31
0.0
  0
LINE
  5
282
330
1F
100
AcDbEntity
  8
0
  6
Continuous
 62
     7
100
AcDbLine
 10
252.772249616986
 20
82.0310597041019
 30
0.0
 11
252.7722496169859
 21
82.97907438719282
 31
0.0
  0
LINE
  5
283
330
1F
100
AcDbEntity
  8
0
  6
Continuous
 62
     7
100
AcDbLine
 10
250.2722496169864
 20
78.30981330755141
 30
0.0
 11
251.2722496169864
 21
78.30981330755152
 31
0.0
  0
LINE
  5
284
330
1F
100
AcDbEntity
  8
0
  6
Continuous
 62
     7
100
AcDbLine
 10
252.7722496169833
 20
105.3863282196195
 30
0.0
 11
252.772249616985
 21
91.83353027418683
 31
0.0
  0
LINE
  5
285
330
1F
100
AcDbEntity
  8
0
  6
Continuous
 62
     7
100
AcDbLine
 10
247.2722496169832
 20
106.8098133075498
 30
0.0
 11
247.2722496169833
 21
105.3863282196189
 31
0.0
  0
LINE
  5
286
330
1F
100
AcDbEntity
  8
0
  6
Continuous
 62
     7
100
AcDbLine
 10
247.2722496169833
 20
105.3863282196189
 30
0.0
 11
247.2722496169847
 21
93.37405102498143
 31
0.0
  0
LINE
  5
287
330
1F
100
AcDbEntity
  8
0
  6
Continuous
 62
     7
100
AcDbLine
 10
252.7722496169853
 20
88.15684651269113
 30
0.0
 11
194.7722496169852
 21
88.15684651268451
 31
0.0
  0
LINE
  5
288
330
1F
100
AcDbEntity
  8
0
  6
Continuous
 62
     7
100
AcDbLine
 10
194.7722496169852
 20
88.05903175261112
 30
0.0
 11
194.7722496169852
 21
88.15684651268451
 31
0.0
  0
LINE
  5
289
330
1F
100
AcDbEntity
  8
0
  6
Continuous
 62
     7
100
AcDbLine
 10
252.7722496169853
 20
87.88766165305593
 30
0.0
 11
252.7722496169853
 21
88.05903175261783
 31
0.0
  0
LINE
  5
28A
330
1F
100
AcDbEntity
  8
0
  6
Continuous
 62
     7
100
AcDbLine
 10
194.7722496169852
 20
88.05903175261112
 30
0.0
 11
252.7722496169853
 21
88.05903175261783
 31
0.0
  0
LINE
  5
28B
330
1F
100
AcDbEntity
  8
0
  6
Continuous
 62
     7
100
AcDbLine
 10
194.7722496169853
 20
87.88766165304942
 30
0.0
 11
194.7722496169852
 21
88.05903175261112
 31
0.0
  0
LINE
  5
28C
330
1F
100
AcDbEntity
  8
0
  6
Continuous
 62
     7
100
AcDbLine
 10
252.7722496169855
 20
87.40215169828132
 30
0.0
 11
252.7722496169855
 21
87.49044645756722
 31
0.0
  0
LINE
  5
28D
330
1F
100
AcDbEntity
  8
0
  6
Continuous
 62
     7
100
AcDbLine
 10
252.7722496169853
 20
87.79369239097743
 30
0.0
 11
252.7722496169853
 21
87.88766165305593
 31
0.0
  0
LINE
  5
28E
330
1F
100
AcDbEntity
  8
0
  6
Continuous
 62
     7
100
AcDbLine
 10
252.7722496169855
 20
87.49044645756722
 30
0.0
 11
252.7722496169853
 21
87.79369239097743
 31
0.0
  0
LINE
  5
28F
330
1F
100
AcDbEntity
  8
0
  6
Continuous
 62
     7
100
AcDbLine
 10
252.7722496169853
 20
87.88766165305593
 30
0.0
 11
194.7722496169853
 21
87.88766165304942
 31
0.0
  0
LINE
  5
290
330
1F
100
AcDbEntity
  8
0
  6
Continuous
 62
     7
100
AcDbLine
 10
194.7722496169853
 20
87.40215169827472
 30
0.0
 11
194.7722496169853
 21
87.49044645756062
 31
0.0
  0
LINE
  5
291
330
1F
100
AcDbEntity
  8
0
  6
Continuous
 62
     7
100
AcDbLine
 10
194.7722496169853
 20
87.79369239097083
 30
0.0
 11
194.7722496169853
 21
87.88766165304942
 31
0.0
  0
LINE
  5
292
330
1F
100
AcDbEntity
  8
0
  6
Continuous
 62
     7
100
AcDbLine
 10
194.7722496169853
 20
87.49044645756062
 30
0.0
 11
194.7722496169853
 21
87.79369239097083
 31
0.0
  0
LINE
  5
293
330
1F
100
AcDbEntity
  8
0
  6
Continuous
 62
     7
100
AcDbLine
 10
194.7722496169853
 20
87.49044645756062
 30
0.0
 11
252.7722496169855
 21
87.49044645756722
 31
0.0
  0
LINE
  5
294
330
1F
100
AcDbEntity
  8
0
  6
Continuous
 62
     7
100
AcDbLine
 10
252.7722496169855
 20
86.97293226817943
 30
0.0
 11
252.7722496169855
 21
87.40215169828132
 31
0.0
  0
LINE
  5
295
330
1F
100
AcDbEntity
  8
0
  6
Continuous
 62
     7
100
AcDbLine
 10
194.7722496169853
 20
87.40215169827472
 30
0.0
 11
252.7722496169855
 21
87.40215169828132
 31
0.0
  0
LINE
  5
296
330
1F
100
AcDbEntity
  8
0
  6
Continuous
 62
     7
100
AcDbLine
 10
194.7722496169853
 20
86.97293226817281
 30
0.0
 11
194.7722496169853
 21
87.40215169827472
 31
0.0
  0
LINE
  5
297
330
1F
100
AcDbEntity
  8
0
  6
Continuous
 62
     7
100
AcDbLine
 10
194.7722496169853
 20
86.34519190991882
 30
0.0
 11
194.7722496169853
 21
86.89203056873531
 31
0.0
  0
LINE
  5
298
330
1F
100
AcDbEntity
  8
0
  6
Continuous
 62
     7
100
AcDbLine
 10
194.7722496169853
 20
86.89203056873531
 30
0.0
 11
194.7722496169853
 21
86.97293226817281
 31
0.0
  0
LINE
  5
299
330
1F
100
AcDbEntity
  8
0
  6
Continuous
 62
     7
100
AcDbLine
 10
252.7722496169855
 20
86.34519190992542
 30
0.0
 11
252.7722496169855
 21
86.89203056874193
 31
0.0
  0
LINE
  5
29A
330
1F
100
AcDbEntity
  8
0
  6
Continuous
 62
     7
100
AcDbLine
 10
252.7722496169855
 20
86.89203056874193
 30
0.0
 11
252.7722496169855
 21
86.97293226817943
 31
0.0
  0
LINE
  5
29B
330
1F
100
AcDbEntity
  8
0
  6
Continuous
 62
     7
100
AcDbLine
 10
194.7722496169853
 20
86.97293226817281
 30
0.0
 11
252.7722496169855
 21
86.97293226817943
 31
0.0
  0
LINE
  5
29C
330
1F
100
AcDbEntity
  8
0
  6
Continuous
 62
     7
100
AcDbLine
 10
252.7722496169855
 20
86.27325792989153
 30
0.0
 11
252.7722496169855
 21
86.34519190992542
 31
0.0
  0
LINE
  5
29D
330
1F
100
AcDbEntity
  8
0
  6
Continuous
 62
     7
100
AcDbLine
 10
194.7722496169854
 20
86.27325792988493
 30
0.0
 11
194.7722496169853
 21
86.34519190991882
 31
0.0
  0
LINE
  5
29E
330
1F
100
AcDbEntity
  8
0
  6
Continuous
 62
     7
100
AcDbLine
 10
194.7722496169853
 20
86.34519190991882
 30
0.0
 11
252.7722496169855
 21
86.34519190992542
 31
0.0
  0
LINE
  5
29F
330
1F
100
AcDbEntity
  8
0
  6
Continuous
 62
     7
100
AcDbLine
 10
194.7722496169858
 20
83.60838064278612
 30
0.0
 11
194.7722496169858
 21
83.45365284908901
 31
0.0
  0
LINE
  5
2A0
330
1F
100
AcDbEntity
  8
0
  6
Continuous
 62
     7
100
AcDbLine
 10
194.7722496169854
 20
85.55787748729541
 30
0.0
 11
194.7722496169854
 21
85.61944363482793
 31
0.0
  0
LINE
  5
2A1
330
1F
100
AcDbEntity
  8
0
  6
Continuous
 62
     7
100
AcDbLine
 10
194.7722496169857
 20
84.80981330754871
 30
0.0
 11
194.7722496169854
 21
85.55787748729541
 31
0.0
  0
LINE
  5
2A2
330
1F
100
AcDbEntity
  8
0
  6
Continuous
 62
     7
100
AcDbLine
 10
194.7722496169858
 20
82.97907438718623
 30
0.0
 11
194.7722496169858
 21
83.10981330754292
 31
0.0
  0
LINE
  5
2A3
330
1F
100
AcDbEntity
  8
0
  6
Continuous
 62
     7
100
AcDbLine
 10
221.8381262152003
 20
84.15981330755152
 30
0.0
 11
221.3125708652541
 21
83.24952473925471
 31
0.0
  0
LINE
  5
2A4
330
1F
100
AcDbEntity
  8
0
  6
Continuous
 62
     7
100
AcDbLine
 10
220.1867378403345
 20
83.89952473925452
 30
0.0
 11
219.7367378403344
 21
83.12010187584853
 31
0.0
  0
LINE
  5
2A5
330
1F
100
AcDbEntity
  8
0
  6
Continuous
 62
     7
100
AcDbLine
 10
221.3125708652541
 20
83.24952473925471
 30
0.0
 11
220.1867378403345
 21
83.89952473925452
 31
0.0
  0
LINE
  5
2A6
330
1F
100
AcDbEntity
  8
0
  6
Continuous
 62
     7
100
AcDbLine
 10
229.6900898761795
 20
85.05981330755223
 30
0.0
 11
230.7870553876399
 21
83.15981330755291
 31
0.0
  0
LINE
  5
2A7
330
1F
100
AcDbEntity
  8
0
  6
Continuous
 62
     7
100
AcDbLine
 10
252.7722496169858
 20
84.80981330755533
 30
0.0
 11
252.7722496169855
 21
85.55787748730201
 31
0.0
  0
LINE
  5
2A8
330
1F
100
AcDbEntity
  8
0
  6
Continuous
 62
     7
100
AcDbLine
 10
252.7722496169855
 20
85.61944363483461
 30
0.0
 11
231.2870553876395
 21
85.61944363483211
 31
0.0
  0
LINE
  5
2A9
330
1F
100
AcDbEntity
  8
0
  6
Continuous
 62
     7
100
AcDbLine
 10
231.2870553876395
 20
84.80981330755272
 30
0.0
 11
231.2870553876395
 21
84.75981330755253
 31
0.0
  0
LINE
  5
2AA
330
1F
100
AcDbEntity
  8
0
  6
Continuous
 62
     7
100
AcDbLine
 10
252.7722496169858
 20
84.80981330755533
 30
0.0
 11
231.2870553876395
 21
84.80981330755272
 31
0.0
  0
LINE
  5
2AB
330
1F
100
AcDbEntity
  8
0
  6
Continuous
 62
     7
100
AcDbLine
 10
194.7722496169854
 20
85.61944363482793
 30
0.0
 11
194.7722496169854
 21
86.27325792988493
 31
0.0
  0
LINE
  5
2AC
330
1F
100
AcDbEntity
  8
0
  6
Continuous
 62
     7
100
AcDbLine
 10
200.2722496169857
 20
85.61944363482861
 30
0.0
 11
194.7722496169854
 21
85.61944363482793
 31
0.0
  0
LINE
  5
2AD
330
1F
100
AcDbEntity
  8
0
  6
Continuous
 62
     7
100
AcDbLine
 10
194.7722496169858
 20
83.10981330754292
 30
0.0
 11
194.7722496169858
 21
83.45365284908901
 31
0.0
  0
LINE
  5
2AE
330
1F
100
AcDbEntity
  8
0
  6
Continuous
 62
     7
100
AcDbLine
 10
216.2574438463319
 20
82.97907438718862
 30
0.0
 11
216.2574438463318
 21
83.89459880212071
 31
0.0
  0
LINE
  5
2AF
330
1F
100
AcDbEntity
  8
0
  6
Continuous
 62
     7
100
AcDbLine
 10
252.7722496169858
 20
83.93205946146652
 30
0.0
 11
231.2870553876396
 21
83.93205946146402
 31
0.0
  0
LINE
  5
2B0
330
1F
100
AcDbEntity
  8
0
  6
Continuous
 62
     7
100
AcDbLine
 10
230.7870553876399
 20
84.05981330755263
 30
0.0
 11
230.2097051184499
 21
85.05981330755283
 31
0.0
  0
LINE
  5
2B1
330
1F
100
AcDbEntity
  8
0
  6
Continuous
 62
     7
100
AcDbLine
 10
225.8795780995277
 20
84.95981330755212
 30
0.0
 11
225.9950481533661
 21
84.95981330755232
 31
0.0
  0
LINE
  5
2B2
330
1F
100
AcDbEntity
  8
0
  6
Continuous
 62
     7
100
AcDbLine
 10
225.8795780995277
 20
84.95981330755212
 30
0.0
 11
225.4176978841761
 21
84.15981330755191
 31
0.0
  0
LINE
  5
2B3
330
1F
100
AcDbEntity
  8
0
  6
Continuous
 62
     7
100
AcDbLine
 10
194.7722496169857
 20
84.10981330754161
 30
0.0
 11
194.7722496169858
 21
84.68896496356093
 31
0.0
  0
LINE
  5
2B4
330
1F
100
AcDbEntity
  8
0
  6
Continuous
 62
     7
100
AcDbLine
 10
199.2963296497118
 20
84.75981330754892
 30
0.0
 11
194.7722496169855
 21
84.75981330754841
 31
0.0
  0
LINE
  5
2B5
330
1F
100
AcDbEntity
  8
0
  6
Continuous
 62
     7
100
AcDbLine
 10
194.7722496169858
 20
84.68896496356093
 30
0.0
 11
194.7722496169855
 21
84.75981330754841
 31
0.0
  0
LINE
  5
2B6
330
1F
100
AcDbEntity
  8
0
  6
Continuous
 62
     7
100
AcDbLine
 10
194.7722496169855
 20
84.75981330754841
 30
0.0
 11
194.7722496169857
 21
84.80981330754871
 31
0.0
  0
LINE
  5
2B7
330
1F
100
AcDbEntity
  8
0
  6
Continuous
 62
     7
100
AcDbLine
 10
226.9765436109884
 20
85.05981330755203
 30
0.0
 11
228.0735091224484
 21
85.05981330755252
 31
0.0
  0
LINE
  5
2B8
330
1F
100
AcDbEntity
  8
0
  6
Continuous
 62
     7
100
AcDbLine
 10
220.3370155153073
 20
84.15981330755132
 30
0.0
 11
221.8381262152003
 21
84.15981330755152
 31
0.0
  0
LINE
  5
2B9
330
1F
100
AcDbEntity
  8
0
  6
Continuous
 62
     7
100
AcDbLine
 10
230.7870553876395
 20
85.05981330755283
 30
0.0
 11
230.7870553876399
 21
84.05981330755263
 31
0.0
  0
LINE
  5
2BA
330
1F
100
AcDbEntity
  8
0
  6
Continuous
 62
     7
100
AcDbLine
 10
224.9558176688243
 20
85.05981330755223
 30
0.0
 11
226.4569283687178
 21
85.05981330755192
 31
0.0
  0
LINE
  5
2BB
330
1F
100
AcDbEntity
  8
0
  6
Continuous
 62
     7
100
AcDbLine
 10
216.7574438463318
 20
85.05981330755132
 30
0.0
 11
220.8566307575781
 21
85.05981330755172
 31
0.0
  0
LINE
  5
2BC
330
1F
100
AcDbEntity
  8
0
  6
Continuous
 62
     7
100
AcDbLine
 10
206.4701294515243
 20
84.77391492268343
 30
0.0
 11
206.3453794532051
 21
84.71715831504223
 31
0.0
  0
LINE
  5
2BD
330
1F
100
AcDbEntity
  8
0
  6
Continuous
 62
     7
100
AcDbLine
 10
230.2097051184499
 20
85.05981330755283
 30
0.0
 11
230.7870553876395
 21
85.05981330755283
 31
0.0
  0
LINE
  5
2BE
330
1F
100
AcDbEntity
  8
0
  6
Continuous
 62
     7
100
AcDbLine
 10
228.5931243647193
 20
85.05981330755212
 30
0.0
 11
229.6900898761795
 21
85.05981330755223
 31
0.0
  0
LINE
  5
2BF
330
1F
100
AcDbEntity
  8
0
  6
Continuous
 62
     7
100
AcDbLine
 10
223.3969719420121
 20
85.05981330755161
 30
0.0
 11
223.9165871842826
 21
85.05981330755161
 31
0.0
  0
LINE
  5
2C0
330
1F
100
AcDbEntity
  8
0
  6
Continuous
 62
     7
100
AcDbLine
 10
220.8566307575781
 20
85.05981330755172
 30
0.0
 11
220.3370155153073
 21
84.15981330755132
 31
0.0
  0
LINE
  5
2C1
330
1F
100
AcDbEntity
  8
0
  6
Continuous
 62
     7
100
AcDbLine
 10
216.2574438463315
 20
85.61944363483043
 30
0.0
 11
200.2722496169857
 21
85.61944363482861
 31
0.0
  0
LINE
  5
2C2
330
1F
100
AcDbEntity
  8
0
  6
Continuous
 62
     7
100
AcDbLine
 10
216.2574438463315
 20
85.55787748729783
 30
0.0
 11
216.2574438463315
 21
85.61944363483043
 31
0.0
  0
LINE
  5
2C3
330
1F
100
AcDbEntity
  8
0
  6
Continuous
 62
     7
100
AcDbLine
 10
216.2574438463318
 20
84.80981330755101
 30
0.0
 11
216.2574438463315
 21
85.55787748729783
 31
0.0
  0
LINE
  5
2C4
330
1F
100
AcDbEntity
  8
0
  6
Continuous
 62
     7
100
AcDbLine
 10
200.2722496169858
 20
84.68896496356162
 30
0.0
 11
199.2030785445296
 21
84.71715831504143
 31
0.0
  0
LINE
  5
2C5
330
1F
100
AcDbEntity
  8
0
  6
Continuous
 62
     7
100
AcDbLine
 10
206.3453794532051
 20
84.71715831504223
 30
0.0
 11
200.2722496169858
 21
84.68896496356162
 31
0.0
  0
LINE
  5
2C6
330
1F
100
AcDbEntity
  8
0
  6
Continuous
 62
     7
100
AcDbLine
 10
194.7722496169857
 20
83.89459880211821
 30
0.0
 11
194.7722496169858
 21
83.60838064278612
 31
0.0
  0
LINE
  5
2C7
330
1F
100
AcDbEntity
  8
0
  6
Continuous
 62
     7
100
AcDbLine
 10
194.7722496169857
 20
83.89459880211821
 30
0.0
 11
194.7722496169857
 21
83.93205946145981
 31
0.0
  0
LINE
  5
2C8
330
1F
100
AcDbEntity
  8
0
  6
Continuous
 62
     7
100
AcDbLine
 10
194.7722496169857
 20
83.93205946145981
 30
0.0
 11
194.7722496169857
 21
84.10981330754161
 31
0.0
  0
LINE
  5
2C9
330
1F
100
AcDbEntity
  8
0
  6
Continuous
 62
     7
100
AcDbLine
 10
200.2722496169857
 20
84.10981330754232
 30
0.0
 11
200.2722496169859
 21
83.93205946146041
 31
0.0
  0
LINE
  5
2CA
330
1F
100
AcDbEntity
  8
0
  6
Continuous
 62
     7
100
AcDbLine
 10
216.2574438463318
 20
83.89459880212071
 30
0.0
 11
216.2574438463318
 21
83.93205946146223
 31
0.0
  0
LINE
  5
2CB
330
1F
100
AcDbEntity
  8
0
  6
Continuous
 62
     7
100
AcDbLine
 10
216.2574438463318
 20
83.93205946146223
 30
0.0
 11
194.7722496169857
 21
83.93205946145981
 31
0.0
  0
LINE
  5
2CC
330
1F
100
AcDbEntity
  8
0
  6
Continuous
 62
     7
100
AcDbLine
 10
252.7722496169855
 20
85.61944363483461
 30
0.0
 11
252.7722496169855
 21
86.27325792989153
 31
0.0
  0
LINE
  5
2CD
330
1F
100
AcDbEntity
  8
0
  6
Continuous
 62
     7
100
AcDbLine
 10
231.2870553876395
 20
84.75981330755253
 30
0.0
 11
241.074369782447
 21
84.77391492268741
 31
0.0
  0
LINE
  5
2CE
330
1F
100
AcDbEntity
  8
0
  6
Continuous
 62
     7
100
AcDbLine
 10
231.2870553876396
 20
83.89459880212242
 30
0.0
 11
231.2870553876396
 21
83.93205946146402
 31
0.0
  0
LINE
  5
2CF
330
1F
100
AcDbEntity
  8
0
  6
Continuous
 62
     7
100
AcDbLine
 10
231.2870553876399
 20
82.97907438719032
 30
0.0
 11
231.2870553876396
 21
83.89459880212242
 31
0.0
  0
LINE
  5
2D0
330
1F
100
AcDbEntity
  8
0
  6
Continuous
 62
     7
100
AcDbLine
 10
231.2870553876395
 20
85.5578774872995
 30
0.0
 11
231.2870553876395
 21
85.61944363483211
 31
0.0
  0
LINE
  5
2D1
330
1F
100
AcDbEntity
  8
0
  6
Continuous
 62
     7
100
AcDbLine
 10
231.2870553876395
 20
84.80981330755272
 30
0.0
 11
231.2870553876395
 21
85.5578774872995
 31
0.0
  0
LINE
  5
2D2
330
1F
100
AcDbEntity
  8
0
  6
Continuous
 62
     7
100
AcDbLine
 10
252.7722496169859
 20
82.97907438719282
 30
0.0
 11
252.7722496169859
 21
83.10981330754952
 31
0.0
  0
LINE
  5
2D3
330
1F
100
AcDbEntity
  8
0
  6
Continuous
 62
     7
100
AcDbLine
 10
252.7722496169859
 20
82.97907438719282
 30
0.0
 11
231.2870553876399
 21
82.97907438719032
 31
0.0
  0
LINE
  5
2D4
330
1F
100
AcDbEntity
  8
0
  6
Continuous
 62
     7
100
AcDbLine
 10
241.074369782447
 20
84.77391492268741
 30
0.0
 11
241.1991197807662
 21
84.71715831504623
 31
0.0
  0
LINE
  5
2D5
330
1F
100
AcDbEntity
  8
0
  6
Continuous
 62
     7
100
AcDbLine
 10
241.074369782447
 20
84.77391492268741
 30
0.0
 11
241.1053648777733
 21
84.75981330755373
 31
0.0
  0
LINE
  5
2D6
330
1F
100
AcDbEntity
  8
0
  6
Continuous
 62
     7
100
AcDbLine
 10
241.1053648777733
 20
84.75981330755373
 30
0.0
 11
248.2173410430086
 21
84.77391492268823
 31
0.0
  0
LINE
  5
2D7
330
1F
100
AcDbEntity
  8
0
  6
Continuous
 62
     7
100
AcDbLine
 10
248.2481695842595
 20
84.75981330755452
 30
0.0
 11
248.3414206894417
 21
84.71715831504703
 31
0.0
  0
LINE
  5
2D8
330
1F
100
AcDbEntity
  8
0
  6
Continuous
 62
     7
100
AcDbLine
 10
248.2173410430086
 20
84.77391492268823
 30
0.0
 11
248.2481695842595
 21
84.75981330755452
 31
0.0
  0
LINE
  5
2D9
330
1F
100
AcDbEntity
  8
0
  6
Continuous
 62
     7
100
AcDbLine
 10
247.2722496169858
 20
84.68896496356693
 30
0.0
 11
248.3414206894417
 21
84.71715831504703
 31
0.0
  0
LINE
  5
2DA
330
1F
100
AcDbEntity
  8
0
  6
Continuous
 62
     7
100
AcDbLine
 10
247.2722496169858
 20
84.10981330754753
 30
0.0
 11
247.2722496169858
 21
83.93205946146581
 31
0.0
  0
LINE
  5
2DB
330
1F
100
AcDbEntity
  8
0
  6
Continuous
 62
     7
100
AcDbLine
 10
252.7722496169858
 20
83.45365284909563
 30
0.0
 11
252.7722496169858
 21
83.60838064279271
 31
0.0
  0
LINE
  5
2DC
330
1F
100
AcDbEntity
  8
0
  6
Continuous
 62
     7
100
AcDbLine
 10
252.7722496169858
 20
84.759813307555
 30
0.0
 11
252.7722496169858
 21
84.80981330755533
 31
0.0
  0
LINE
  5
2DD
330
1F
100
AcDbEntity
  8
0
  6
Continuous
 62
     7
100
AcDbLine
 10
252.7722496169858
 20
84.68896496356761
 30
0.0
 11
252.7722496169858
 21
84.759813307555
 31
0.0
  0
LINE
  5
2DE
330
1F
100
AcDbEntity
  8
0
  6
Continuous
 62
     7
100
AcDbLine
 10
252.7722496169858
 20
84.10981330754821
 30
0.0
 11
252.7722496169858
 21
84.68896496356761
 31
0.0
  0
LINE
  5
2DF
330
1F
100
AcDbEntity
  8
0
  6
Continuous
 62
     7
100
AcDbLine
 10
252.7722496169858
 20
83.93205946146652
 30
0.0
 11
252.7722496169858
 21
84.10981330754821
 31
0.0
  0
LINE
  5
2E0
330
1F
100
AcDbEntity
  8
0
  6
Continuous
 62
     7
100
AcDbLine
 10
252.7722496169858
 20
83.89459880212483
 30
0.0
 11
252.7722496169858
 21
83.93205946146652
 31
0.0
  0
LINE
  5
2E1
330
1F
100
AcDbEntity
  8
0
  6
Continuous
 62
     7
100
AcDbLine
 10
252.7722496169855
 20
85.55787748730201
 30
0.0
 11
252.7722496169855
 21
85.61944363483461
 31
0.0
  0
LINE
  5
2E2
330
1F
100
AcDbEntity
  8
0
  6
Continuous
 62
     7
100
AcDbLine
 10
248.2481695842595
 20
84.75981330755452
 30
0.0
 11
252.7722496169858
 21
84.759813307555
 31
0.0
  0
LINE
  5
2E3
330
1F
100
AcDbEntity
  8
0
  6
Continuous
 62
     7
100
AcDbLine
 10
241.1991197807662
 20
84.71715831504623
 30
0.0
 11
247.2722496169858
 21
84.68896496356693
 31
0.0
  0
LINE
  5
2E4
330
1F
100
AcDbEntity
  8
0
  6
Continuous
 62
     7
100
AcDbLine
 10
252.7722496169855
 20
86.27325792989153
 30
0.0
 11
194.7722496169854
 21
86.27325792988493
 31
0.0
  0
LINE
  5
2E5
330
1F
100
AcDbEntity
  8
0
  6
Continuous
 62
     7
100
AcDbLine
 10
117.6722505448292
 20
74.30981330755053
 30
0.0
 11
150.4722505448277
 21
74.30981330755431
 31
0.0
  0
LINE
  5
2E6
330
1F
100
AcDbEntity
  8
0
  6
Continuous
 62
     7
100
AcDbLine
 10
124.5969653195957
 20
89.82524345252561
 30
0.0
 11
122.7275128347133
 21
84.68896496356761
 31
0.0
  0
LINE
  5
2E7
330
1F
100
AcDbEntity
  8
0
  6
Continuous
 62
     7
100
AcDbLine
 10
124.0069608379535
 20
81.30877612268473
 30
0.0
 11
132.2047262619332
 21
89.84767397531313
 31
0.0
  0
LINE
  5
2E8
330
1F
100
AcDbEntity
  8
0
  6
Continuous
 62
     7
100
AcDbLine
 10
137.4238689130565
 20
76.80981330755382
 30
0.0
 11
117.672250544832
 21
76.80981330755152
 31
0.0
  0
LINE
  5
2E9
330
1F
100
AcDbEntity
  8
0
  6
Continuous
 62
     7
100
AcDbLine
 10
118.9774081379494
 20
83.60838064279271
 30
0.0
 11
119.2344281952594
 21
83.45365284909563
 31
0.0
  0
LINE
  5
2EA
330
1F
100
AcDbEntity
  8
0
  6
Continuous
 62
     7
100
AcDbLine
 10
116.1722505448321
 20
78.30981330755152
 30
0.0
 11
116.1722505448319
 21
79.79179542542921
 31
0.0
  0
LINE
  5
2EB
330
1F
100
AcDbEntity
  8
0
  6
Continuous
 62
     7
100
AcDbLine
 10
113.6722505448287
 20
78.30981330755053
 30
0.0
 11
113.6722505448287
 21
80.60981330754903
 31
0.0
  0
LINE
  5
2EC
330
1F
100
AcDbEntity
  8
0
  6
Continuous
 62
     7
100
AcDbLine
 10
154.9074850516647
 20
76.02410665003383
 30
0.0
 11
154.9717638126333
 21
75.94750220572202
 31
0.0
  0
LINE
  5
2ED
330
1F
100
AcDbEntity
  8
0
  6
Continuous
 62
     7
100
AcDbLine
 10
155.5999498406216
 20
76.69281212367882
 30
0.0
 11
155.6742643231693
 21
76.62589906304281
 31
0.0
  0
LINE
  5
2EE
330
1F
100
AcDbEntity
  8
0
  6
Continuous
 62
     7
100
AcDbLine
 10
155.2653933009936
 20
86.27325792989153
 30
0.0
 11
155.3348591380394
 21
86.34519190992542
 31
0.0
  0
LINE
  5
2EF
330
1F
100
AcDbEntity
  8
0
  6
Continuous
 62
     7
100
AcDbLine
 10
154.1286934680368
 20
75.45828144407533
 30
0.0
 11
154.1816853944602
 21
75.37347663445972
 31
0.0
  0
LINE
  5
2F0
330
1F
100
AcDbEntity
  8
0
  6
Continuous
 62
     7
100
AcDbLine
 10
153.3194070463584
 20
74.91499510405633
 30
0.0
 11
153.2787333820508
 21
75.0063496498205
 31
0.0
  0
LINE
  5
2F1
330
1F
100
AcDbEntity
  8
0
  6
Continuous
 62
     7
100
AcDbLine
 10
152.3741482999651
 20
74.67710760558013
 30
0.0
 11
152.4017120355467
 21
74.58098143598623
 31
0.0
  0
LINE
  5
2F2
330
1F
100
AcDbEntity
  8
0
  6
Continuous
 62
     7
100
AcDbLine
 10
151.4325449414522
 20
74.47696363323753
 30
0.0
 11
151.4464622515483
 21
74.37793682636341
 31
0.0
  0
LINE
  5
2F3
330
1F
100
AcDbEntity
  8
0
  6
Continuous
 62
     7
100
AcDbLine
 10
150.4722505448277
 20
74.30981330755431
 30
0.0
 11
150.4722505448277
 21
74.40981330755433
 31
0.0
  0
LINE
  5
2F4
330
1F
100
AcDbEntity
  8
0
  6
Continuous
 62
     7
100
AcDbLine
 10
147.9722505448223
 20
77.80981330755522
 30
0.0
 11
147.9722505448216
 21
84.80981330755533
 31
0.0
  0
LINE
  5
2F5
330
1F
100
AcDbEntity
  8
0
  6
Continuous
 62
     7
100
AcDbLine
 10
157.4339038124048
 20
82.0415125504286
 30
0.0
 11
157.334451622868
 21
82.0310597041019
 31
0.0
  0
LINE
  5
2F6
330
1F
100
AcDbEntity
  8
0
  6
Continuous
 62
     7
100
AcDbLine
 10
157.3680472512589
 20
81.06900678030793
 30
0.0
 11
157.4679863339608
 21
81.06551683063763
 31
0.0
  0
LINE
  5
2F7
330
1F
100
AcDbEntity
  8
0
  6
Continuous
 62
     7
100
AcDbLine
 10
157.3659048159126
 20
80.09427606388662
 30
0.0
 11
157.2674240406115
 21
80.11164088165323
 31
0.0
  0
LINE
  5
2F8
330
1F
100
AcDbEntity
  8
0
  6
Continuous
 62
     7
100
AcDbLine
 10
157.0345405072639
 20
79.17759604636792
 30
0.0
 11
157.1296461588934
 21
79.14669434693043
 31
0.0
  0
LINE
  5
2F9
330
1F
100
AcDbEntity
  8
0
  6
Continuous
 62
     7
100
AcDbLine
 10
156.6739294642916
 20
78.28505239471043
 30
0.0
 11
156.7638088689215
 21
78.24121528003143
 31
0.0
  0
LINE
  5
2FA
330
1F
100
AcDbEntity
  8
0
  6
Continuous
 62
     7
100
AcDbLine
 10
156.2755135527127
 20
77.39546298325972
 30
0.0
 11
156.1926097954572
 21
77.45138227360682
 31
0.0
  0
LINE
  5
2FB
330
1F
100
AcDbEntity
  8
0
  6
Continuous
 62
     7
100
AcDbLine
 10
150.4722505448307
 20
76.80981330755533
 30
0.0
 11
148.9722505448225
 21
76.80981330755513
 31
0.0
  0
LINE
  5
2FC
330
1F
100
AcDbEntity
  8
0
  6
Continuous
 62
     7
100
AcDbLine
 10
126.8683814031374
 20
105.3863282196196
 30
0.0
 11
150.4722505448262
 21
88.30981330755431
 31
0.0
  0
LINE
  5
2FD
330
1F
100
AcDbEntity
  8
0
  6
Continuous
 62
     7
100
AcDbLine
 10
156.4478258309393
 20
84.759813307555
 30
0.0
 11
156.5344283713178
 21
84.80981330755502
 31
0.0
  0
LINE
  5
2FE
330
1F
100
AcDbEntity
  8
0
  6
Continuous
 62
     7
100
AcDbLine
 10
152.866391548106
 20
87.88766165305601
 30
0.0
 11
152.8321895337734
 21
87.79369239097743
 31
0.0
  0
LINE
  5
2FF
330
1F
100
AcDbEntity
  8
0
  6
Continuous
 62
     7
100
AcDbLine
 10
153.7116043280489
 20
87.40215169828132
 30
0.0
 11
153.7585514843276
 21
87.49044645756722
 31
0.0
  0
LINE
  5
300
330
1F
100
AcDbEntity
  8
0
  6
Continuous
 62
     7
100
AcDbLine
 10
151.9068412114688
 20
88.05903175261783
 30
0.0
 11
151.9276323805506
 21
88.15684651269113
 31
0.0
  0
LINE
  5
301
330
1F
100
AcDbEntity
  8
0
  6
Continuous
 62
     7
100
AcDbLine
 10
150.9605458610351
 20
88.29276165937323
 30
0.0
 11
150.9535702136607
 21
88.19300525434723
 31
0.0
  0
LINE
  5
302
330
1F
100
AcDbEntity
  8
0
  6
Continuous
 62
     7
100
AcDbLine
 10
148.9722505448215
 20
85.80981330755533
 30
0.0
 11
150.4722505448297
 21
85.80981330755533
 31
0.0
  0
LINE
  5
303
330
1F
100
AcDbEntity
  8
0
  6
Continuous
 62
     7
100
AcDbLine
 10
156.9625375267943
 20
83.93205946146641
 30
0.0
 11
156.8698191413376
 21
83.89459880212483
 31
0.0
  0
LINE
  5
304
330
1F
100
AcDbEntity
  8
0
  6
Continuous
 62
     7
100
AcDbLine
 10
157.1672910561313
 20
82.97907438719282
 30
0.0
 11
157.2643206287588
 21
83.00326657675272
 31
0.0
  0
LINE
  5
305
330
1F
100
AcDbEntity
  8
0
  6
Continuous
 62
     7
100
AcDbLine
 10
155.9095247447129
 20
85.55787748730201
 30
0.0
 11
155.9883258200736
 21
85.61944363483461
 31
0.0
  0
LINE
  5
306
330
1F
100
AcDbEntity
  8
0
  6
Continuous
 62
     7
100
AcDbLine
 10
154.5279687856445
 20
86.89203056874193
 30
0.0
 11
154.5867473108737
 21
86.97293226817943
 31
0.0
  0
LINE
  5
307
330
1F
100
AcDbEntity
  8
0
  6
Continuous
 62
     7
100
AcDbLine
 10
150.4722505448262
 20
88.20981330755431
 30
0.0
 11
150.4722505448262
 21
88.30981330755431
 31
0.0
  0
LINE
  5
308
330
1F
100
AcDbEntity
  8
1
  6
DOT_CENTER
 62
     2
100
AcDbLine
 10
128.0822505448257
 20
99.30981330755053
 30
0.0
 11
116.8622505448257
 21
99.30981330755053
 31
0.0
  0
LINE
  5
309
330
1F
100
AcDbEntity
  8
1
  6
DOT_CENTER
 62
     2
100
AcDbLine
 10
122.4722505448257
 20
104.9198133075505
 30
0.0
 11
122.4722505448257
 21
93.69981330755043
 31
0.0
  0
LINE
  5
30A
330
1F
100
AcDbEntity
  8
0
  6
Continuous
 62
     7
100
AcDbLine
 10
115.7222505448254
 20
155.3098133075471
 30
0.0
 11
115.7222505448254
 21
141.8098133075471
 31
0.0
  0
LINE
  5
30B
330
1F
100
AcDbEntity
  8
0
  6
Continuous
 62
     7
100
AcDbLine
 10
79.72225054482536
 20
155.3098133075471
 30
0.0
 11
79.72225054482536
 21
141.8098133075471
 31
0.0
  0
LINE
  5
30C
330
1F
100
AcDbEntity
  8
0
  6
Continuous
 62
     7
100
AcDbLine
 10
56.97225054482536
 20
110.5598133075496
 30
0.0
 11
50.97225054482536
 21
110.5598133075489
 31
0.0
  0
LINE
  5
30D
330
1F
100
AcDbEntity
  8
0
  6
Continuous
 62
     7
100
AcDbLine
 10
56.97225054482536
 20
109.7598133075495
 30
0.0
 11
51.67225054482535
 21
109.7598133075489
 31
0.0
  0
LINE
  5
30E
330
1F
100
AcDbEntity
  8
0
  6
Continuous
 62
     7
100
AcDbLine
 10
51.67225054482535
 20
109.8598133075489
 30
0.0
 11
56.97225054482536
 21
109.8598133075495
 31
0.0
  0
LINE
  5
30F
330
1F
100
AcDbEntity
  8
0
  6
Continuous
 62
     7
100
AcDbLine
 10
51.67225054482535
 20
109.8598133075489
 30
0.0
 11
50.97225054482536
 21
110.5598133075489
 31
0.0
  0
LINE
  5
310
330
1F
100
AcDbEntity
  8
0
  6
Continuous
 62
     7
100
AcDbLine
 10
50.97225054482536
 20
110.5598133075489
 30
0.0
 11
50.97225054482536
 21
138.8098133075489
 31
0.0
  0
LINE
  5
311
330
1F
100
AcDbEntity
  8
0
  6
Continuous
 62
     7
100
AcDbLine
 10
56.97225054482536
 20
108.0598133075496
 30
0.0
 11
50.97225054482536
 21
108.0598133075473
 31
0.0
  0
LINE
  5
312
330
1F
100
AcDbEntity
  8
0
  6
Continuous
 62
     7
100
AcDbLine
 10
50.97225054482536
 20
108.0598133075473
 30
0.0
 11
50.97225054482536
 21
106.5598133075473
 31
0.0
  0
LINE
  5
313
330
1F
100
AcDbEntity
  8
0
  6
Continuous
 62
     7
100
AcDbLine
 10
51.67225054451129
 20
107.3598133072348
 30
0.0
 11
50.97225054482536
 21
108.0598133075473
 31
0.0
  0
LINE
  5
314
330
1F
100
AcDbEntity
  8
0
  6
Continuous
 62
     7
100
AcDbLine
 10
50.97225054482536
 20
108.0598133075473
 30
0.0
 11
50.97225054482536
 21
109.0598133075489
 31
0.0
  0
LINE
  5
315
330
1F
100
AcDbEntity
  8
0
  6
Continuous
 62
     7
100
AcDbLine
 10
51.67225054482535
 20
109.8598133075489
 30
0.0
 11
51.67225054482535
 21
109.7598133075489
 31
0.0
  0
LINE
  5
316
330
1F
100
AcDbEntity
  8
0
  6
Continuous
 62
     7
100
AcDbLine
 10
50.97225054482536
 20
109.0598133075489
 30
0.0
 11
56.97225054482536
 21
109.0598133075496
 31
0.0
  0
LINE
  5
317
330
1F
100
AcDbEntity
  8
0
  6
Continuous
 62
     7
100
AcDbLine
 10
51.67225054482535
 20
109.7598133075489
 30
0.0
 11
50.97225054482536
 21
109.0598133075489
 31
0.0
  0
LINE
  5
318
330
1F
100
AcDbEntity
  8
0
  6
Continuous
 62
     7
100
AcDbLine
 10
50.97225054482536
 20
110.5598133075489
 30
0.0
 11
50.97225054482536
 21
109.0598133075489
 31
0.0
  0
LINE
  5
319
330
1F
100
AcDbEntity
  8
0
  6
Continuous
 62
     7
100
AcDbLine
 10
56.97225054482536
 20
104.0598133075496
 30
0.0
 11
66.74255560389909
 21
104.0598133075496
 31
0.0
  0
LINE
  5
31A
330
1F
100
AcDbEntity
  8
0
  6
Continuous
 62
     7
100
AcDbLine
 10
144.4722505448254
 20
110.5598133075473
 30
0.0
 11
138.4722505448254
 21
110.5598133075496
 31
0.0
  0
LINE
  5
31B
330
1F
100
AcDbEntity
  8
0
  6
Continuous
 62
     7
100
AcDbLine
 10
144.4722505448254
 20
109.0598133075473
 30
0.0
 11
144.4722505445112
 21
108.059813307863
 31
0.0
  0
LINE
  5
31C
330
1F
100
AcDbEntity
  8
0
  6
Continuous
 62
     7
100
AcDbLine
 10
144.4722505448254
 20
104.0598133075489
 30
0.0
 11
144.4722505448254
 21
96.80981330754891
 31
0.0
  0
LINE
  5
31D
330
1F
100
AcDbEntity
  8
0
  6
Continuous
 62
     7
100
AcDbLine
 10
144.4722505448254
 20
106.5598133075489
 30
0.0
 11
144.4722505445112
 21
108.059813307863
 31
0.0
  0
LINE
  5
31E
330
1F
100
AcDbEntity
  8
0
  6
Continuous
 62
     7
100
AcDbLine
 10
144.4732505448253
 20
92.64986503138643
 30
0.0
 11
144.4722505448254
 21
96.80981330754891
 31
0.0
  0
LINE
  5
31F
330
1F
100
AcDbEntity
  8
0
  6
Continuous
 62
     7
100
AcDbLine
 10
138.4722505448254
 20
106.5598133075496
 30
0.0
 11
144.4722505448254
 21
106.5598133075489
 31
0.0
  0
LINE
  5
320
330
1F
100
AcDbEntity
  8
0
  6
Continuous
 62
     7
100
AcDbLine
 10
144.4722505445112
 20
108.059813307863
 30
0.0
 11
138.4722505448254
 21
108.0598133075496
 31
0.0
  0
LINE
  5
321
330
1F
100
AcDbEntity
  8
0
  6
Continuous
 62
     7
100
AcDbLine
 10
143.7722505451394
 20
104.8598133072348
 30
0.0
 11
144.4722505445112
 21
105.559813307863
 31
0.0
  0
LINE
  5
322
330
1F
100
AcDbEntity
  8
0
  6
Continuous
 62
     7
100
AcDbLine
 10
143.7722505451394
 20
104.759813307863
 30
0.0
 11
144.4722505448254
 21
104.0598133075489
 31
0.0
  0
LINE
  5
323
330
1F
100
AcDbEntity
  8
0
  6
Continuous
 62
     7
100
AcDbLine
 10
143.7722505451394
 20
109.759813307863
 30
0.0
 11
138.4722505448254
 21
109.7598133075495
 31
0.0
  0
LINE
  5
324
330
1F
100
AcDbEntity
  8
0
  6
Continuous
 62
     7
100
AcDbLine
 10
138.4722505448254
 20
109.8598133075495
 30
0.0
 11
143.7722505451394
 21
109.8598133072348
 31
0.0
  0
LINE
  5
325
330
1F
100
AcDbEntity
  8
0
  6
Continuous
 62
     7
100
AcDbLine
 10
144.4722505448254
 20
109.0598133075473
 30
0.0
 11
144.4722505448254
 21
110.5598133075473
 31
0.0
  0
LINE
  5
326
330
1F
100
AcDbEntity
  8
0
  6
Continuous
 62
     7
100
AcDbLine
 10
138.4722505448254
 20
109.0598133075496
 30
0.0
 11
144.4722505448254
 21
109.0598133075473
 31
0.0
  0
LINE
  5
327
330
1F
100
AcDbEntity
  8
0
  6
Continuous
 62
     7
100
AcDbLine
 10
138.4722505448254
 20
104.0598133075496
 30
0.0
 11
144.4722505448254
 21
104.0598133075489
 31
0.0
  0
LINE
  5
328
330
1F
100
AcDbEntity
  8
0
  6
Continuous
 62
     7
100
AcDbLine
 10
144.4722505448254
 20
96.80981330754891
 30
0.0
 11
138.7231970208833
 21
96.80981330755053
 31
0.0
  0
LINE
  5
329
330
1F
100
AcDbEntity
  8
0
  6
Continuous
 62
     7
100
AcDbLine
 10
144.4722505445112
 20
105.559813307863
 30
0.0
 11
138.4722505448254
 21
105.5598133075496
 31
0.0
  0
LINE
  5
32A
330
1F
100
AcDbEntity
  8
0
  6
Continuous
 62
     7
100
AcDbLine
 10
144.4722505448254
 20
106.5598133075489
 30
0.0
 11
144.4722505445112
 21
105.559813307863
 31
0.0
  0
LINE
  5
32B
330
1F
100
AcDbEntity
  8
0
  6
Continuous
 62
     7
100
AcDbLine
 10
143.7722505448254
 20
107.2598133075489
 30
0.0
 11
144.4722505448254
 21
106.5598133075489
 31
0.0
  0
LINE
  5
32C
330
1F
100
AcDbEntity
  8
0
  6
Continuous
 62
     7
100
AcDbLine
 10
143.7722505448254
 20
107.3598133075489
 30
0.0
 11
144.4722505445112
 21
108.059813307863
 31
0.0
  0
LINE
  5
32D
330
1F
100
AcDbEntity
  8
0
  6
Continuous
 62
     7
100
AcDbLine
 10
143.7722505451394
 20
109.8598133072348
 30
0.0
 11
144.4722505448254
 21
110.5598133075473
 31
0.0
  0
LINE
  5
32E
330
1F
100
AcDbEntity
  8
0
  6
Continuous
 62
     7
100
AcDbLine
 10
143.7722505451394
 20
109.759813307863
 30
0.0
 11
144.4722505448254
 21
109.0598133075473
 31
0.0
  0
LINE
  5
32F
330
1F
100
AcDbEntity
  8
0
  6
Continuous
 62
     7
100
AcDbLine
 10
138.4722505448254
 20
109.7598133075495
 30
0.0
 11
56.97225054482536
 21
109.7598133075495
 31
0.0
  0
LINE
  5
330
330
1F
100
AcDbEntity
  8
0
  6
Continuous
 62
     7
100
AcDbLine
 10
56.97225054482536
 20
109.8598133075495
 30
0.0
 11
138.4722505448254
 21
109.8598133075495
 31
0.0
  0
LINE
  5
331
330
1F
100
AcDbEntity
  8
0
  6
Continuous
 62
     7
100
AcDbLine
 10
138.4722505448254
 20
108.0598133075496
 30
0.0
 11
56.97225054482536
 21
108.0598133075496
 31
0.0
  0
LINE
  5
332
330
1F
100
AcDbEntity
  8
0
  6
Continuous
 62
     7
100
AcDbLine
 10
56.97225054482536
 20
109.0598133075496
 30
0.0
 11
138.4722505448254
 21
109.0598133075496
 31
0.0
  0
LINE
  5
333
330
1F
100
AcDbEntity
  8
0
  6
Continuous
 62
     7
100
AcDbLine
 10
138.4722505448254
 20
110.5598133075496
 30
0.0
 11
56.97225054482536
 21
110.5598133075496
 31
0.0
  0
LINE
  5
334
330
1F
100
AcDbEntity
  8
0
  6
Continuous
 62
     7
100
AcDbLine
 10
56.97225054482536
 20
141.8098133075494
 30
0.0
 11
79.72225054482536
 21
141.8098133075471
 31
0.0
  0
LINE
  5
335
330
1F
100
AcDbEntity
  8
0
  6
Continuous
 62
     7
100
AcDbLine
 10
143.7722505451394
 20
109.8598133072348
 30
0.0
 11
143.7722505451394
 21
109.759813307863
 31
0.0
  0
LINE
  5
336
330
1F
100
AcDbEntity
  8
0
  6
Continuous
 62
     7
100
AcDbLine
 10
144.4722505448254
 20
104.0598133075489
 30
0.0
 11
144.4722505445112
 21
105.559813307863
 31
0.0
  0
LINE
  5
337
330
1F
100
AcDbEntity
  8
0
  6
Continuous
 62
     7
100
AcDbLine
 10
144.4722505448254
 20
138.8098133075489
 30
0.0
 11
144.4722505448254
 21
110.5598133075473
 31
0.0
  0
LINE
  5
338
330
1F
100
AcDbEntity
  8
0
  6
Continuous
 62
     7
100
AcDbLine
 10
98.97225054482536
 20
126.4428133630805
 30
0.0
 11
98.97225054482536
 21
122.1768132520187
 31
0.0
  0
LINE
  5
339
330
1F
100
AcDbEntity
  8
0
  6
Continuous
 62
     7
100
AcDbLine
 10
95.47225054482536
 20
122.7534799186854
 30
0.0
 11
95.47225054482536
 21
125.8661466964138
 31
0.0
  0
LINE
  5
33A
330
1F
100
AcDbEntity
  8
0
  6
Continuous
 62
     7
100
AcDbLine
 10
95.97225054482536
 20
125.8661466964138
 30
0.0
 11
95.97225054482536
 21
122.8979029742504
 31
0.0
  0
LINE
  5
33B
330
1F
100
AcDbEntity
  8
0
  6
Continuous
 62
     7
100
AcDbLine
 10
94.47225054482536
 20
123.3198133075496
 30
0.0
 11
94.47225054482536
 21
125.2998133075496
 31
0.0
  0
LINE
  5
33C
330
1F
100
AcDbEntity
  8
0
  6
Continuous
 62
     7
100
AcDbLine
 10
94.97225054482536
 20
125.2998133075496
 30
0.0
 11
94.97225054482536
 21
123.3198133075496
 31
0.0
  0
LINE
  5
33D
330
1F
100
AcDbEntity
  8
0
  6
Continuous
 62
     7
100
AcDbLine
 10
97.72225054482536
 20
120.8498133075496
 30
0.0
 11
103.7222505448254
 21
124.3098133075496
 31
0.0
  0
LINE
  5
33E
330
1F
100
AcDbEntity
  8
0
  6
Continuous
 62
     7
100
AcDbLine
 10
99.47225054482536
 20
122.7534799186854
 30
0.0
 11
99.47225054482536
 21
125.8661466964138
 31
0.0
  0
LINE
  5
33F
330
1F
100
AcDbEntity
  8
0
  6
Continuous
 62
     7
100
AcDbLine
 10
98.47225054482536
 20
122.1768132520187
 30
0.0
 11
98.47225054482536
 21
125.6900443348145
 31
0.0
  0
LINE
  5
340
330
1F
100
AcDbEntity
  8
0
  6
Continuous
 62
     7
100
AcDbLine
 10
95.97225054482536
 20
122.8979029742504
 30
0.0
 11
97.8471394923179
 21
121.8167170145298
 31
0.0
  0
LINE
  5
341
330
1F
100
AcDbEntity
  8
0
  6
Continuous
 62
     7
100
AcDbLine
 10
97.59736159733282
 20
121.3835761561743
 30
0.0
 11
95.59736159733282
 21
122.5369094895077
 31
0.0
  0
LINE
  5
342
330
1F
100
AcDbEntity
  8
0
  6
Continuous
 62
     7
100
AcDbLine
 10
100.8471394923179
 20
123.1135761561743
 30
0.0
 11
99.8471394923179
 21
122.5369094895077
 31
0.0
  0
LINE
  5
343
330
1F
100
AcDbEntity
  8
0
  6
Continuous
 62
     7
100
AcDbLine
 10
99.97225054482536
 20
123.1862363075838
 30
0.0
 11
100.5973615973328
 21
123.5467170145298
 31
0.0
  0
LINE
  5
344
330
1F
100
AcDbEntity
  8
0
  6
Continuous
 62
     7
100
AcDbLine
 10
99.97225054482536
 20
124.0598133075496
 30
0.0
 11
99.97225054482536
 21
123.1862363075838
 31
0.0
  0
LINE
  5
345
330
1F
100
AcDbEntity
  8
0
  6
Continuous
 62
     7
100
AcDbLine
 10
100.7222505448254
 20
124.0598133075496
 30
0.0
 11
99.97225054482536
 21
124.0598133075496
 31
0.0
  0
LINE
  5
346
330
1F
100
AcDbEntity
  8
0
  6
Continuous
 62
     7
100
AcDbLine
 10
91.72225054482536
 20
124.3098133075496
 30
0.0
 11
97.72225054482536
 21
120.8498133075496
 31
0.0
  0
LINE
  5
347
330
1F
100
AcDbEntity
  8
0
  6
Continuous
 62
     7
100
AcDbLine
 10
115.7222505448254
 20
141.8098133075471
 30
0.0
 11
138.4722505448254
 21
141.8098133075494
 31
0.0
  0
LINE
  5
348
330
1F
100
AcDbEntity
  8
0
  6
Continuous
 62
     7
100
AcDbLine
 10
96.97225054482536
 20
125.6900443348145
 30
0.0
 11
96.97225054482536
 21
123.3198133075496
 31
0.0
  0
LINE
  5
349
330
1F
100
AcDbEntity
  8
0
  6
Continuous
 62
     7
100
AcDbLine
 10
96.47225054482536
 20
123.3198133075496
 30
0.0
 11
96.47225054482536
 21
126.4428133630805
 31
0.0
  0
LINE
  5
34A
330
1F
100
AcDbEntity
  8
0
  6
Continuous
 62
     7
100
AcDbLine
 10
97.72225054482536
 20
124.6854309853294
 30
0.0
 11
96.97225054482536
 21
125.6900443348145
 31
0.0
  0
LINE
  5
34B
330
1F
100
AcDbEntity
  8
0
  6
Continuous
 62
     7
100
AcDbLine
 10
99.97225054482536
 20
125.4333903075154
 30
0.0
 11
99.97225054482536
 21
124.5598133075496
 31
0.0
  0
LINE
  5
34C
330
1F
100
AcDbEntity
  8
0
  6
Continuous
 62
     7
100
AcDbLine
 10
98.47225054482536
 20
125.6900443348145
 30
0.0
 11
97.72225054482536
 21
124.6854309853294
 31
0.0
  0
LINE
  5
34D
330
1F
100
AcDbEntity
  8
0
  6
Continuous
 62
     7
100
AcDbLine
 10
99.97225054482536
 20
124.5598133075496
 30
0.0
 11
100.7222505448254
 21
124.5598133075496
 31
0.0
  0
LINE
  5
34E
330
1F
100
AcDbEntity
  8
0
  6
Continuous
 62
     7
100
AcDbLine
 10
100.5973615973328
 20
125.0729096005694
 30
0.0
 11
99.97225054482536
 21
125.4333903075154
 31
0.0
  0
LINE
  5
34F
330
1F
100
AcDbEntity
  8
0
  6
Continuous
 62
     7
100
AcDbLine
 10
99.8471394923179
 20
126.0827171255915
 30
0.0
 11
100.8471394923179
 21
125.5060504589248
 31
0.0
  0
LINE
  5
350
330
1F
100
AcDbEntity
  8
0
  6
Continuous
 62
     7
100
AcDbLine
 10
97.72225054482536
 20
125.5212268088719
 30
0.0
 11
98.52191984977847
 21
126.5923714207772
 31
0.0
  0
LINE
  5
351
330
1F
100
AcDbEntity
  8
0
  6
Continuous
 62
     7
100
AcDbLine
 10
79.72225054482536
 20
141.8098133075471
 30
0.0
 11
115.7222505448254
 21
141.8098133075471
 31
0.0
  0
LINE
  5
352
330
1F
100
AcDbEntity
  8
0
  6
Continuous
 62
     7
100
AcDbLine
 10
103.7222505448254
 20
124.3098133075496
 30
0.0
 11
97.72225054482536
 21
127.7698133075496
 31
0.0
  0
LINE
  5
353
330
1F
100
AcDbEntity
  8
0
  6
Continuous
 62
     7
100
AcDbLine
 10
97.72225054482536
 20
127.7698133075496
 30
0.0
 11
91.72225054482536
 21
124.3098133075496
 31
0.0
  0
LINE
  5
354
330
1F
100
AcDbEntity
  8
0
  6
Continuous
 62
     7
100
AcDbLine
 10
96.92258123987224
 20
126.5923714207772
 30
0.0
 11
97.72225054482536
 21
125.5212268088719
 31
0.0
  0
LINE
  5
355
330
1F
100
AcDbEntity
  8
0
  6
Continuous
 62
     7
100
AcDbLine
 10
128.7019454857522
 20
104.0598133075496
 30
0.0
 11
138.4722505448254
 21
104.0598133075496
 31
0.0
  0
LINE
  5
356
330
1F
100
AcDbEntity
  8
0
  6
Continuous
 62
     7
100
AcDbLine
 10
78.77634392794775
 20
104.0598133075496
 30
0.0
 11
116.6681571617029
 21
104.0598133075496
 31
0.0
  0
LINE
  5
357
330
1F
100
AcDbEntity
  8
0
  6
Continuous
 62
     7
100
AcDbLine
 10
91.22180593979922
 20
124.3098133075496
 30
0.0
 11
97.72225054482536
 21
128.0584030297814
 31
0.0
  0
LINE
  5
358
330
1F
100
AcDbEntity
  8
0
  6
Continuous
 62
     7
100
AcDbLine
 10
97.72225054482536
 20
120.5612235853179
 30
0.0
 11
91.22180593979922
 21
124.3098133075496
 31
0.0
  0
LINE
  5
359
330
1F
100
AcDbEntity
  8
0
  6
Continuous
 62
     7
100
AcDbLine
 10
97.72225054482536
 20
128.0584030297814
 30
0.0
 11
104.2226951498515
 21
124.3098133075496
 31
0.0
  0
LINE
  5
35A
330
1F
100
AcDbEntity
  8
0
  6
Continuous
 62
     7
100
AcDbLine
 10
104.2226951498515
 20
124.3098133075496
 30
0.0
 11
97.72225054482536
 21
120.5612235853179
 31
0.0
  0
LINE
  5
35B
330
1F
100
AcDbEntity
  8
0
  6
Continuous
 62
     7
100
AcDbLine
 10
51.67225054451129
 20
107.3598133072348
 30
0.0
 11
56.97225054482536
 21
107.3598133075495
 31
0.0
  0
LINE
  5
35C
330
1F
100
AcDbEntity
  8
0
  6
Continuous
 62
     7
100
AcDbLine
 10
138.4722505448254
 20
107.3598133075495
 30
0.0
 11
143.7722505448254
 21
107.3598133075489
 31
0.0
  0
LINE
  5
35D
330
1F
100
AcDbEntity
  8
0
  6
Continuous
 62
     7
100
AcDbLine
 10
56.97225054482536
 20
107.3598133075495
 30
0.0
 11
138.4722505448254
 21
107.3598133075495
 31
0.0
  0
LINE
  5
35E
330
1F
100
AcDbEntity
  8
0
  6
Continuous
 62
     7
100
AcDbLine
 10
51.67225054451129
 20
107.3598133072348
 30
0.0
 11
51.67225054451129
 21
107.259813307863
 31
0.0
  0
LINE
  5
35F
330
1F
100
AcDbEntity
  8
0
  6
Continuous
 62
     7
100
AcDbLine
 10
143.7722505448254
 20
107.3598133075489
 30
0.0
 11
143.7722505448254
 21
107.2598133075489
 31
0.0
  0
LINE
  5
360
330
1F
100
AcDbEntity
  8
0
  6
Continuous
 62
     7
100
AcDbLine
 10
50.97225054482536
 20
106.5598133075473
 30
0.0
 11
56.97225054482536
 21
106.5598133075496
 31
0.0
  0
LINE
  5
361
330
1F
100
AcDbEntity
  8
0
  6
Continuous
 62
     7
100
AcDbLine
 10
56.97225054482536
 20
107.2598133075495
 30
0.0
 11
51.67225054451129
 21
107.259813307863
 31
0.0
  0
LINE
  5
362
330
1F
100
AcDbEntity
  8
0
  6
Continuous
 62
     7
100
AcDbLine
 10
51.67225054451129
 20
107.259813307863
 30
0.0
 11
50.97225054482536
 21
106.5598133075473
 31
0.0
  0
LINE
  5
363
330
1F
100
AcDbEntity
  8
0
  6
Continuous
 62
     7
100
AcDbLine
 10
56.97225054482536
 20
106.5598133075496
 30
0.0
 11
71.05196410785467
 21
106.5598133075496
 31
0.0
  0
LINE
  5
364
330
1F
100
AcDbEntity
  8
0
  6
Continuous
 62
     7
100
AcDbLine
 10
74.89253698179547
 20
106.5598133075496
 30
0.0
 11
120.5519641078551
 21
106.5598133075496
 31
0.0
  0
LINE
  5
365
330
1F
100
AcDbEntity
  8
0
  6
Continuous
 62
     7
100
AcDbLine
 10
138.4722505448254
 20
107.2598133075495
 30
0.0
 11
56.97225054482536
 21
107.2598133075495
 31
0.0
  0
LINE
  5
366
330
1F
100
AcDbEntity
  8
0
  6
Continuous
 62
     7
100
AcDbLine
 10
51.67225054451129
 20
104.8598133072348
 30
0.0
 11
50.97225054513948
 21
105.559813307863
 31
0.0
  0
LINE
  5
367
330
1F
100
AcDbEntity
  8
0
  6
Continuous
 62
     7
100
AcDbLine
 10
68.82646955687957
 20
105.5598133075496
 30
0.0
 11
56.97225054482536
 21
105.5598133075496
 31
0.0
  0
LINE
  5
368
330
1F
100
AcDbEntity
  8
0
  6
Continuous
 62
     7
100
AcDbLine
 10
115.4011827329603
 20
96.80981330754962
 30
0.0
 11
80.04331835669026
 21
96.80981330754962
 31
0.0
  0
LINE
  5
369
330
1F
100
AcDbEntity
  8
0
  6
Continuous
 62
     7
100
AcDbLine
 10
138.4722505448254
 20
105.5598133075496
 30
0.0
 11
126.618031532771
 21
105.5598133075496
 31
0.0
  0
LINE
  5
36A
330
1F
100
AcDbEntity
  8
0
  6
Continuous
 62
     7
100
AcDbLine
 10
143.7722505448254
 20
107.2598133075489
 30
0.0
 11
138.4722505448254
 21
107.2598133075495
 31
0.0
  0
LINE
  5
36B
330
1F
100
AcDbEntity
  8
0
  6
Continuous
 62
     7
100
AcDbLine
 10
124.3925369817959
 20
106.5598133075496
 30
0.0
 11
138.4722505448254
 21
106.5598133075496
 31
0.0
  0
LINE
  5
36C
330
1F
100
AcDbEntity
  8
0
  6
Continuous
 62
     7
100
AcDbLine
 10
122.4722505448265
 20
91.80981330754453
 30
0.0
 11
72.97225054482507
 21
91.80981330754453
 31
0.0
  0
LINE
  5
36D
330
1F
100
AcDbEntity
  8
0
  6
Continuous
 62
     7
100
AcDbLine
 10
138.4722505448254
 20
104.8598133075495
 30
0.0
 11
143.7722505451394
 21
104.8598133072348
 31
0.0
  0
LINE
  5
36E
330
1F
100
AcDbEntity
  8
0
  6
Continuous
 62
     7
100
AcDbLine
 10
127.5961522129101
 20
104.8598133075495
 30
0.0
 11
138.4722505448254
 21
104.8598133075495
 31
0.0
  0
LINE
  5
36F
330
1F
100
AcDbEntity
  8
0
  6
Continuous
 62
     7
100
AcDbLine
 10
78.01680206106616
 20
104.8598133075495
 30
0.0
 11
117.4276990285844
 21
104.8598133075495
 31
0.0
  0
LINE
  5
370
330
1F
100
AcDbEntity
  8
0
  6
Continuous
 62
     7
100
AcDbLine
 10
118.32646955688
 20
105.5598133075496
 30
0.0
 11
77.11803153277057
 21
105.5598133075496
 31
0.0
  0
LINE
  5
371
330
1F
100
AcDbEntity
  8
0
  6
Continuous
 62
     7
100
AcDbLine
 10
56.97225054482536
 20
105.5598133075496
 30
0.0
 11
50.97225054513948
 21
105.559813307863
 31
0.0
  0
LINE
  5
372
330
1F
100
AcDbEntity
  8
0
  6
Continuous
 62
     7
100
AcDbLine
 10
50.97225054513948
 20
105.559813307863
 30
0.0
 11
50.97225054482536
 21
106.5598133075473
 31
0.0
  0
LINE
  5
373
330
1F
100
AcDbEntity
  8
0
  6
Continuous
 62
     7
100
AcDbLine
 10
50.97225054513948
 20
105.559813307863
 30
0.0
 11
50.97225054482536
 21
104.0598133075489
 31
0.0
  0
LINE
  5
374
330
1F
100
AcDbEntity
  8
0
  6
Continuous
 62
     7
100
AcDbLine
 10
138.4722505448254
 20
104.7598133075495
 30
0.0
 11
127.7343763720154
 21
104.7598133075495
 31
0.0
  0
LINE
  5
375
330
1F
100
AcDbEntity
  8
0
  6
Continuous
 62
     7
100
AcDbLine
 10
143.7722505451394
 20
104.759813307863
 30
0.0
 11
138.4722505448254
 21
104.7598133075495
 31
0.0
  0
LINE
  5
376
330
1F
100
AcDbEntity
  8
0
  6
Continuous
 62
     7
100
AcDbLine
 10
117.3198239320526
 20
104.7598133075495
 30
0.0
 11
78.12467715759797
 21
104.7598133075495
 31
0.0
  0
LINE
  5
377
330
1F
100
AcDbEntity
  8
0
  6
Continuous
 62
     7
100
AcDbLine
 10
143.7722505451394
 20
104.8598133072348
 30
0.0
 11
143.7722505451394
 21
104.759813307863
 31
0.0
  0
LINE
  5
378
330
1F
100
AcDbEntity
  8
0
  6
Continuous
 62
     7
100
AcDbLine
 10
51.67225054451129
 20
104.759813307863
 30
0.0
 11
50.97225054482536
 21
104.0598133075489
 31
0.0
  0
LINE
  5
379
330
1F
100
AcDbEntity
  8
0
  6
Continuous
 62
     7
100
AcDbLine
 10
51.67225054451129
 20
104.8598133072348
 30
0.0
 11
51.67225054451129
 21
104.759813307863
 31
0.0
  0
LINE
  5
37A
330
1F
100
AcDbEntity
  8
0
  6
Continuous
 62
     7
100
AcDbLine
 10
50.97125054482539
 20
92.64986503138611
 30
0.0
 11
50.97225054482536
 21
96.80981330754891
 31
0.0
  0
LINE
  5
37B
330
1F
100
AcDbEntity
  8
0
  6
Continuous
 62
     7
100
AcDbLine
 10
51.67225054451129
 20
104.8598133072348
 30
0.0
 11
56.97225054482536
 21
104.8598133075495
 31
0.0
  0
LINE
  5
37C
330
1F
100
AcDbEntity
  8
0
  6
Continuous
 62
     7
100
AcDbLine
 10
56.97225054482536
 20
104.8598133075495
 30
0.0
 11
67.84834887674114
 21
104.8598133075495
 31
0.0
  0
LINE
  5
37D
330
1F
100
AcDbEntity
  8
0
  6
Continuous
 62
     7
100
AcDbLine
 10
50.97225054482536
 20
96.80981330754891
 30
0.0
 11
50.97225054482536
 21
104.0598133075489
 31
0.0
  0
LINE
  5
37E
330
1F
100
AcDbEntity
  8
0
  6
Continuous
 62
     7
100
AcDbLine
 10
56.72130406876787
 20
96.80981330755053
 30
0.0
 11
50.97225054482536
 21
96.80981330754891
 31
0.0
  0
LINE
  5
37F
330
1F
100
AcDbEntity
  8
0
  6
Continuous
 62
     7
100
AcDbLine
 10
50.97225054482536
 20
104.0598133075489
 30
0.0
 11
56.97225054482536
 21
104.0598133075496
 31
0.0
  0
LINE
  5
380
330
1F
100
AcDbEntity
  8
0
  6
Continuous
 62
     7
100
AcDbLine
 10
56.97225054482536
 20
104.7598133075495
 30
0.0
 11
51.67225054451129
 21
104.759813307863
 31
0.0
  0
LINE
  5
381
330
1F
100
AcDbEntity
  8
0
  6
Continuous
 62
     7
100
AcDbLine
 10
67.71012471763586
 20
104.7598133075495
 30
0.0
 11
56.97225054482536
 21
104.7598133075495
 31
0.0
  0
LINE
  5
382
330
1F
100
AcDbEntity
  8
0
  6
Continuous
 62
     7
100
AcDbLine
 10
44.97225054482275
 20
74.30981330755431
 30
0.0
 11
44.97225054482275
 21
74.40981330755433
 31
0.0
  0
LINE
  5
383
330
1F
100
AcDbEntity
  8
0
  6
Continuous
 62
     7
100
AcDbLine
 10
44.01195614819839
 20
74.47696363323753
 30
0.0
 11
43.99803883810225
 21
74.37793682636341
 31
0.0
  0
LINE
  5
384
330
1F
100
AcDbEntity
  8
0
  6
Continuous
 62
     7
100
AcDbLine
 10
43.07035278968548
 20
74.67710760558013
 30
0.0
 11
43.0427890541038
 21
74.58098143598623
 31
0.0
  0
LINE
  5
385
330
1F
100
AcDbEntity
  8
0
  6
Continuous
 62
     7
100
AcDbLine
 10
42.1250940432922
 20
74.91499510405642
 30
0.0
 11
42.16576770759983
 21
75.00634964982062
 31
0.0
  0
LINE
  5
386
330
1F
100
AcDbEntity
  8
0
  6
Continuous
 62
     7
100
AcDbLine
 10
40.53701603798576
 20
76.02410665003391
 30
0.0
 11
40.47273727701717
 21
75.94750220572193
 31
0.0
  0
LINE
  5
387
330
1F
100
AcDbEntity
  8
0
  6
Continuous
 62
     7
100
AcDbLine
 10
39.16898753693776
 20
77.39546298325972
 30
0.0
 11
39.25189129419326
 21
77.45138227360682
 31
0.0
  0
LINE
  5
388
330
1F
100
AcDbEntity
  8
0
  6
Continuous
 62
     7
100
AcDbLine
 10
70.84753577005475
 20
89.82524345252561
 30
0.0
 11
72.71698825493738
 21
84.68896496356761
 31
0.0
  0
LINE
  5
389
330
1F
100
AcDbEntity
  8
0
  6
Continuous
 62
     7
100
AcDbLine
 10
76.21007289439095
 20
83.45365284909563
 30
0.0
 11
76.46709295170118
 21
83.60838064279271
 31
0.0
  0
LINE
  5
38A
330
1F
100
AcDbEntity
  8
0
  6
Continuous
 62
     7
100
AcDbLine
 10
79.27225054481877
 20
79.79179542542933
 30
0.0
 11
79.27225054481855
 21
78.30981330755161
 31
0.0
  0
LINE
  5
38B
330
1F
100
AcDbEntity
  8
0
  6
Continuous
 62
     7
100
AcDbLine
 10
81.77225054482184
 20
80.60981330754903
 30
0.0
 11
81.77225054482184
 21
78.30981330755053
 31
0.0
  0
LINE
  5
38C
330
1F
100
AcDbEntity
  8
0
  6
Continuous
 62
     7
100
AcDbLine
 10
39.53497634493764
 20
85.55787748730201
 30
0.0
 11
39.45617526957697
 21
85.61944363483461
 31
0.0
  0
LINE
  5
38D
330
1F
100
AcDbEntity
  8
0
  6
Continuous
 62
     7
100
AcDbLine
 10
38.99667525871124
 20
84.759813307555
 30
0.0
 11
38.91007271833284
 21
84.80981330755502
 31
0.0
  0
LINE
  5
38E
330
1F
100
AcDbEntity
  8
0
  6
Continuous
 62
     7
100
AcDbLine
 10
38.07645383839165
 20
81.06900678030782
 30
0.0
 11
37.97651475568976
 21
81.06551683063763
 31
0.0
  0
LINE
  5
38F
330
1F
100
AcDbEntity
  8
0
  6
Continuous
 62
     7
100
AcDbLine
 10
38.0105972772457
 20
82.04151255042872
 30
0.0
 11
38.11004946678245
 21
82.0310597041019
 31
0.0
  0
LINE
  5
390
330
1F
100
AcDbEntity
  8
0
  6
Continuous
 62
     7
100
AcDbLine
 10
38.27721003351937
 20
82.97907438719282
 30
0.0
 11
38.18018046089166
 21
83.00326657675281
 31
0.0
  0
LINE
  5
391
330
1F
100
AcDbEntity
  8
0
  6
Continuous
 62
     7
100
AcDbLine
 10
38.07859627373799
 20
80.09427606388662
 30
0.0
 11
38.17707704903913
 21
80.11164088165332
 31
0.0
  0
LINE
  5
392
330
1F
100
AcDbEntity
  8
0
  6
Continuous
 62
     7
100
AcDbLine
 10
38.40996058238668
 20
79.17759604636792
 30
0.0
 11
38.31485493075716
 21
79.14669434693043
 31
0.0
  0
LINE
  5
393
330
1F
100
AcDbEntity
  8
0
  6
Continuous
 62
     7
100
AcDbLine
 10
38.48196356285624
 20
83.93205946146652
 30
0.0
 11
38.57468194831294
 21
83.89459880212483
 31
0.0
  0
LINE
  5
394
330
1F
100
AcDbEntity
  8
0
  6
Continuous
 62
     7
100
AcDbLine
 10
38.77057162535895
 20
78.28505239471032
 30
0.0
 11
38.68069222072908
 21
78.24121528003143
 31
0.0
  0
LINE
  5
395
330
1F
100
AcDbEntity
  8
0
  6
Continuous
 62
     7
100
AcDbLine
 10
77.77225054482133
 20
74.30981330755053
 30
0.0
 11
44.97225054482275
 21
74.30981330755431
 31
0.0
  0
LINE
  5
396
330
1F
100
AcDbEntity
  8
0
  6
Continuous
 62
     7
100
AcDbLine
 10
41.31580762161375
 20
75.45828144407541
 30
0.0
 11
41.26281569519043
 21
75.37347663445972
 31
0.0
  0
LINE
  5
397
330
1F
100
AcDbEntity
  8
0
  6
Continuous
 62
     7
100
AcDbLine
 10
77.77225054481855
 20
76.80981330755161
 30
0.0
 11
57.33894939049308
 21
76.80981330755402
 31
0.0
  0
LINE
  5
398
330
1F
100
AcDbEntity
  8
0
  6
Continuous
 62
     7
100
AcDbLine
 10
47.47225054482815
 20
77.80981330755522
 30
0.0
 11
47.472250544829
 21
84.80981330755533
 31
0.0
  0
LINE
  5
399
330
1F
100
AcDbEntity
  8
0
  6
Continuous
 62
     7
100
AcDbLine
 10
46.47225054482906
 20
85.80981330755533
 30
0.0
 11
44.97225054482087
 21
85.80981330755542
 31
0.0
  0
LINE
  5
39A
330
1F
100
AcDbEntity
  8
0
  6
Continuous
 62
     7
100
AcDbLine
 10
44.97225054481985
 20
76.80981330755533
 30
0.0
 11
46.47225054482809
 21
76.80981330755522
 31
0.0
  0
LINE
  5
39B
330
1F
100
AcDbEntity
  8
0
  6
Continuous
 62
     7
100
AcDbLine
 10
39.84455124902897
 20
76.69281212367882
 30
0.0
 11
39.7702367664812
 21
76.62589906304281
 31
0.0
  0
LINE
  5
39C
330
1F
100
AcDbEntity
  8
0
  6
Continuous
 62
     7
100
AcDbLine
 10
40.17910778865693
 20
86.27325792989153
 30
0.0
 11
40.10964195161117
 21
86.34519190992542
 31
0.0
  0
LINE
  5
39D
330
1F
100
AcDbEntity
  8
0
  6
Continuous
 62
     7
100
AcDbLine
 10
63.23977482771753
 20
89.84767397531321
 30
0.0
 11
71.43754025169713
 21
81.30877612268493
 31
0.0
  0
LINE
  5
39E
330
1F
100
AcDbEntity
  8
0
  6
Continuous
 62
     7
100
AcDbLine
 10
68.57611968651318
 20
105.3863282196195
 30
0.0
 11
44.97225054482434
 21
88.30981330755431
 31
0.0
  0
LINE
  5
39F
330
1F
100
AcDbEntity
  8
0
  6
Continuous
 62
     7
100
AcDbLine
 10
40.9165323040061
 20
86.89203056874193
 30
0.0
 11
40.85775377877688
 21
86.97293226817943
 31
0.0
  0
LINE
  5
3A0
330
1F
100
AcDbEntity
  8
0
  6
Continuous
 62
     7
100
AcDbLine
 10
41.73289676160156
 20
87.40215169828132
 30
0.0
 11
41.68594960532298
 21
87.49044645756722
 31
0.0
  0
LINE
  5
3A1
330
1F
100
AcDbEntity
  8
0
  6
Continuous
 62
     7
100
AcDbLine
 10
42.5781095415446
 20
87.88766165305593
 30
0.0
 11
42.61231155587715
 21
87.79369239097743
 31
0.0
  0
LINE
  5
3A2
330
1F
100
AcDbEntity
  8
0
  6
Continuous
 62
     7
100
AcDbLine
 10
43.53765987818188
 20
88.05903175261783
 30
0.0
 11
43.51686870910007
 21
88.15684651269113
 31
0.0
  0
LINE
  5
3A3
330
1F
100
AcDbEntity
  8
0
  6
Continuous
 62
     7
100
AcDbLine
 10
44.48395522861544
 20
88.29276165937323
 30
0.0
 11
44.49093087598985
 21
88.19300525434723
 31
0.0
  0
LINE
  5
3A4
330
1F
100
AcDbEntity
  8
0
  6
Continuous
 62
     7
100
AcDbLine
 10
44.97225054482434
 20
88.30981330755431
 30
0.0
 11
44.97225054482434
 21
88.20981330755431
 31
0.0
  0
LINE
  5
3A5
330
1F
100
AcDbEntity
  8
1
  6
DOT_CENTER
 62
     2
100
AcDbLine
 10
78.58225054482469
 20
99.30981330755053
 30
0.0
 11
67.36225054482546
 21
99.30981330755053
 31
0.0
  0
LINE
  5
3A6
330
1F
100
AcDbEntity
  8
1
  6
DOT_CENTER
 62
     2
100
AcDbLine
 10
72.97225054482507
 20
104.9198133075501
 30
0.0
 11
72.97225054482507
 21
93.69981330755083
 31
0.0
  0
LINE
  5
3A7
330
1F
100
AcDbEntity
  8
0
  6
Continuous
 62
     7
100
AcDbLine
 10
205.7722496169777
 20
155.3098133075451
 30
0.0
 11
205.7722496169793
 21
141.8098133075451
 31
0.0
  0
LINE
  5
3A8
330
1F
100
AcDbEntity
  8
0
  6
Continuous
 62
     7
100
AcDbLine
 10
225.272249616983
 20
109.8598133075473
 30
0.0
 11
225.2722496169828
 21
110.5598133075473
 31
0.0
  0
LINE
  5
3A9
330
1F
100
AcDbEntity
  8
0
  6
Continuous
 62
     7
100
AcDbLine
 10
225.272249616983
 20
109.8598133075473
 30
0.0
 11
239.2722496169828
 21
109.8598133075489
 31
0.0
  0
LINE
  5
3AA
330
1F
100
AcDbEntity
  8
0
  6
Continuous
 62
     7
100
AcDbLine
 10
225.272249616983
 20
109.7598133075473
 30
0.0
 11
225.272249616983
 21
109.8598133075473
 31
0.0
  0
LINE
  5
3AB
330
1F
100
AcDbEntity
  8
0
  6
Continuous
 62
     7
100
AcDbLine
 10
239.2722496169828
 20
110.5598133075489
 30
0.0
 11
225.2722496169828
 21
110.5598133075473
 31
0.0
  0
LINE
  5
3AC
330
1F
100
AcDbEntity
  8
0
  6
Continuous
 62
     7
100
AcDbLine
 10
222.272249616983
 20
107.359813307547
 30
0.0
 11
222.272249616983
 21
107.259813307547
 31
0.0
  0
LINE
  5
3AD
330
1F
100
AcDbEntity
  8
0
  6
Continuous
 62
     7
100
AcDbLine
 10
222.272249616983
 20
108.059813307547
 30
0.0
 11
222.272249616983
 21
107.359813307547
 31
0.0
  0
LINE
  5
3AE
330
1F
100
AcDbEntity
  8
0
  6
Continuous
 62
     7
100
AcDbLine
 10
222.272249616983
 20
107.259813307547
 30
0.0
 11
222.2722496169832
 21
106.559813307547
 31
0.0
  0
LINE
  5
3AF
330
1F
100
AcDbEntity
  8
0
  6
Continuous
 62
     7
100
AcDbLine
 10
208.2722496169829
 20
109.0598133075454
 30
0.0
 11
222.272249616983
 21
109.059813307547
 31
0.0
  0
LINE
  5
3B0
330
1F
100
AcDbEntity
  8
0
  6
Continuous
 62
     7
100
AcDbLine
 10
222.2722496169828
 20
110.559813307547
 30
0.0
 11
222.2722496169828
 21
109.859813307547
 31
0.0
  0
LINE
  5
3B1
330
1F
100
AcDbEntity
  8
0
  6
Continuous
 62
     7
100
AcDbLine
 10
222.2722496169828
 20
109.859813307547
 30
0.0
 11
222.2722496169828
 21
109.759813307547
 31
0.0
  0
LINE
  5
3B2
330
1F
100
AcDbEntity
  8
0
  6
Continuous
 62
     7
100
AcDbLine
 10
222.2722496169828
 20
109.759813307547
 30
0.0
 11
222.272249616983
 21
109.059813307547
 31
0.0
  0
LINE
  5
3B3
330
1F
100
AcDbEntity
  8
0
  6
Continuous
 62
     7
100
AcDbLine
 10
202.2722496169796
 20
138.8098133075447
 30
0.0
 11
202.2722496169828
 21
110.5598133075447
 31
0.0
  0
LINE
  5
3B4
330
1F
100
AcDbEntity
  8
0
  6
Continuous
 62
     7
100
AcDbLine
 10
202.9722496166687
 20
109.7598133078589
 30
0.0
 11
208.2722496169828
 21
109.7598133075454
 31
0.0
  0
LINE
  5
3B5
330
1F
100
AcDbEntity
  8
0
  6
Continuous
 62
     7
100
AcDbLine
 10
208.2722496169828
 20
109.7598133075454
 30
0.0
 11
222.2722496169828
 21
109.759813307547
 31
0.0
  0
LINE
  5
3B6
330
1F
100
AcDbEntity
  8
0
  6
Continuous
 62
     7
100
AcDbLine
 10
202.2722496169829
 20
109.0598133075447
 30
0.0
 11
208.2722496169829
 21
109.0598133075454
 31
0.0
  0
LINE
  5
3B7
330
1F
100
AcDbEntity
  8
0
  6
Continuous
 62
     7
100
AcDbLine
 10
208.2722496169828
 20
109.8598133075454
 30
0.0
 11
202.9722496166687
 21
109.8598133072307
 31
0.0
  0
LINE
  5
3B8
330
1F
100
AcDbEntity
  8
0
  6
Continuous
 62
     7
100
AcDbLine
 10
208.2722496169828
 20
110.5598133075454
 30
0.0
 11
202.2722496169828
 21
110.5598133075447
 31
0.0
  0
LINE
  5
3B9
330
1F
100
AcDbEntity
  8
0
  6
Continuous
 62
     7
100
AcDbLine
 10
202.2722496169829
 20
109.0598133075447
 30
0.0
 11
202.272249616983
 21
108.0598133075447
 31
0.0
  0
LINE
  5
3BA
330
1F
100
AcDbEntity
  8
0
  6
Continuous
 62
     7
100
AcDbLine
 10
222.2722496169828
 20
109.859813307547
 30
0.0
 11
208.2722496169828
 21
109.8598133075454
 31
0.0
  0
LINE
  5
3BB
330
1F
100
AcDbEntity
  8
0
  6
Continuous
 62
     7
100
AcDbLine
 10
202.9722496166687
 20
109.7598133078589
 30
0.0
 11
202.9722496166687
 21
109.8598133072307
 31
0.0
  0
LINE
  5
3BC
330
1F
100
AcDbEntity
  8
0
  6
Continuous
 62
     7
100
AcDbLine
 10
202.9722496166687
 20
109.8598133072307
 30
0.0
 11
202.2722496169828
 21
110.5598133075447
 31
0.0
  0
LINE
  5
3BD
330
1F
100
AcDbEntity
  8
0
  6
Continuous
 62
     7
100
AcDbLine
 10
202.9722496166687
 20
109.7598133078589
 30
0.0
 11
202.2722496169829
 21
109.0598133075447
 31
0.0
  0
LINE
  5
3BE
330
1F
100
AcDbEntity
  8
0
  6
Continuous
 62
     7
100
AcDbLine
 10
208.2722496169832
 20
107.2598133075454
 30
0.0
 11
222.272249616983
 21
107.259813307547
 31
0.0
  0
LINE
  5
3BF
330
1F
100
AcDbEntity
  8
0
  6
Continuous
 62
     7
100
AcDbLine
 10
202.9722496166691
 20
107.2598133078589
 30
0.0
 11
202.9722496166691
 21
107.3598133072307
 31
0.0
  0
LINE
  5
3C0
330
1F
100
AcDbEntity
  8
0
  6
Continuous
 62
     7
100
AcDbLine
 10
202.9722496166691
 20
107.2598133078589
 30
0.0
 11
208.2722496169832
 21
107.2598133075454
 31
0.0
  0
LINE
  5
3C1
330
1F
100
AcDbEntity
  8
0
  6
Continuous
 62
     7
100
AcDbLine
 10
202.9722496166691
 20
107.3598133072307
 30
0.0
 11
202.272249616983
 21
108.0598133075447
 31
0.0
  0
LINE
  5
3C2
330
1F
100
AcDbEntity
  8
0
  6
Continuous
 62
     7
100
AcDbLine
 10
208.2722496169832
 20
107.3598133075454
 30
0.0
 11
202.9722496166691
 21
107.3598133072307
 31
0.0
  0
LINE
  5
3C3
330
1F
100
AcDbEntity
  8
0
  6
Continuous
 62
     7
100
AcDbLine
 10
208.272249616983
 20
108.0598133075454
 30
0.0
 11
202.272249616983
 21
108.0598133075447
 31
0.0
  0
LINE
  5
3C4
330
1F
100
AcDbEntity
  8
0
  6
Continuous
 62
     7
100
AcDbLine
 10
202.9722496166691
 20
107.2598133078589
 30
0.0
 11
202.2722496169832
 21
106.5598133075447
 31
0.0
  0
LINE
  5
3C5
330
1F
100
AcDbEntity
  8
0
  6
Continuous
 62
     7
100
AcDbLine
 10
202.2722496169832
 20
106.5598133075447
 30
0.0
 11
208.2722496169832
 21
106.5598133075454
 31
0.0
  0
LINE
  5
3C6
330
1F
100
AcDbEntity
  8
0
  6
Continuous
 62
     7
100
AcDbLine
 10
208.2722496169834
 20
105.5598133075454
 30
0.0
 11
202.2722496172975
 21
105.5598133078588
 31
0.0
  0
LINE
  5
3C7
330
1F
100
AcDbEntity
  8
0
  6
Continuous
 62
     7
100
AcDbLine
 10
202.2722496169832
 20
106.5598133075447
 30
0.0
 11
202.2722496172975
 21
105.5598133078588
 31
0.0
  0
LINE
  5
3C8
330
1F
100
AcDbEntity
  8
0
  6
Continuous
 62
     7
100
AcDbLine
 10
202.9722496166693
 20
104.7598133078589
 30
0.0
 11
202.2722496172977
 21
104.0598133072306
 31
0.0
  0
LINE
  5
3C9
330
1F
100
AcDbEntity
  8
0
  6
Continuous
 62
     7
100
AcDbLine
 10
202.1712496169844
 20
96.80981330754473
 30
0.0
 11
200.2722496169842
 21
96.80981330754453
 31
0.0
  0
LINE
  5
3CA
330
1F
100
AcDbEntity
  8
0
  6
Continuous
 62
     7
100
AcDbLine
 10
202.1712496169838
 20
101.8098133075447
 30
0.0
 11
200.2722496169837
 21
101.8098133075445
 31
0.0
  0
LINE
  5
3CB
330
1F
100
AcDbEntity
  8
0
  6
Continuous
 62
     7
100
AcDbLine
 10
208.2722496169834
 20
104.8598133075454
 30
0.0
 11
202.9722496166693
 21
104.8598133072307
 31
0.0
  0
LINE
  5
3CC
330
1F
100
AcDbEntity
  8
0
  6
Continuous
 62
     7
100
AcDbLine
 10
202.9722496166693
 20
104.7598133078589
 30
0.0
 11
208.2722496169835
 21
104.7598133075454
 31
0.0
  0
LINE
  5
3CD
330
1F
100
AcDbEntity
  8
0
  6
Continuous
 62
     7
100
AcDbLine
 10
202.2722496172977
 20
104.0598133072306
 30
0.0
 11
208.2722496169835
 21
104.0598133075454
 31
0.0
  0
LINE
  5
3CE
330
1F
100
AcDbEntity
  8
0
  6
Continuous
 62
     7
100
AcDbLine
 10
202.9722496166693
 20
104.8598133072307
 30
0.0
 11
202.2722496172975
 21
105.5598133078588
 31
0.0
  0
LINE
  5
3CF
330
1F
100
AcDbEntity
  8
0
  6
Continuous
 62
     7
100
AcDbLine
 10
222.272249616983
 20
107.359813307547
 30
0.0
 11
208.2722496169832
 21
107.3598133075454
 31
0.0
  0
LINE
  5
3D0
330
1F
100
AcDbEntity
  8
0
  6
Continuous
 62
     7
100
AcDbLine
 10
222.272249616983
 20
108.059813307547
 30
0.0
 11
208.272249616983
 21
108.0598133075454
 31
0.0
  0
LINE
  5
3D1
330
1F
100
AcDbEntity
  8
0
  6
Continuous
 62
     7
100
AcDbLine
 10
222.2722496169828
 20
110.559813307547
 30
0.0
 11
208.2722496169828
 21
110.5598133075454
 31
0.0
  0
LINE
  5
3D2
330
1F
100
AcDbEntity
  8
0
  6
Continuous
 62
     7
100
AcDbLine
 10
239.2722496169792
 20
141.8098133075489
 30
0.0
 11
208.2722496169793
 21
141.8098133075454
 31
0.0
  0
LINE
  5
3D3
330
1F
100
AcDbEntity
  8
0
  6
Continuous
 62
     7
100
AcDbLine
 10
241.7722496169776
 20
155.3098133075492
 30
0.0
 11
205.7722496169777
 21
155.3098133075451
 31
0.0
  0
LINE
  5
3D4
330
1F
100
AcDbEntity
  8
0
  6
Continuous
 62
     7
100
AcDbLine
 10
244.5722496169828
 20
109.8598133075495
 30
0.0
 11
244.5722496169828
 21
109.7598133075495
 31
0.0
  0
LINE
  5
3D5
330
1F
100
AcDbEntity
  8
0
  6
Continuous
 62
     7
100
AcDbLine
 10
241.7722496169776
 20
155.3098133075492
 30
0.0
 11
241.7722496169792
 21
141.8098133075492
 31
0.0
  0
LINE
  5
3D6
330
1F
100
AcDbEntity
  8
0
  6
Continuous
 62
     7
100
AcDbLine
 10
245.2722496169828
 20
110.5598133075496
 30
0.0
 11
239.2722496169828
 21
110.5598133075489
 31
0.0
  0
LINE
  5
3D7
330
1F
100
AcDbEntity
  8
0
  6
Continuous
 62
     7
100
AcDbLine
 10
239.2722496169828
 20
109.8598133075489
 30
0.0
 11
244.5722496169828
 21
109.8598133075495
 31
0.0
  0
LINE
  5
3D8
330
1F
100
AcDbEntity
  8
0
  6
Continuous
 62
     7
100
AcDbLine
 10
245.2722496169843
 20
96.80981330754962
 30
0.0
 11
245.2722496169837
 21
101.8098133075496
 31
0.0
  0
LINE
  5
3D9
330
1F
100
AcDbEntity
  8
0
  6
Continuous
 62
     7
100
AcDbLine
 10
244.5722496169828
 20
109.7598133075495
 30
0.0
 11
239.272249616983
 21
109.7598133075489
 31
0.0
  0
LINE
  5
3DA
330
1F
100
AcDbEntity
  8
0
  6
Continuous
 62
     7
100
AcDbLine
 10
245.272249616669
 20
108.0598133078637
 30
0.0
 11
245.272249616983
 21
109.0598133075496
 31
0.0
  0
LINE
  5
3DB
330
1F
100
AcDbEntity
  8
0
  6
Continuous
 62
     7
100
AcDbLine
 10
244.5722496169828
 20
109.7598133075495
 30
0.0
 11
245.272249616983
 21
109.0598133075496
 31
0.0
  0
LINE
  5
3DC
330
1F
100
AcDbEntity
  8
0
  6
Continuous
 62
     7
100
AcDbLine
 10
202.2712496169844
 20
96.80981330754473
 30
0.0
 11
202.1712496169844
 21
96.80981330754473
 31
0.0
  0
LINE
  5
3DD
330
1F
100
AcDbEntity
  8
0
  6
Continuous
 62
     7
100
AcDbLine
 10
202.2722496169837
 20
101.8098133075447
 30
0.0
 11
202.1712496169838
 21
101.8098133075447
 31
0.0
  0
LINE
  5
3DE
330
1F
100
AcDbEntity
  8
0
  6
Continuous
 62
     7
100
AcDbLine
 10
202.2722496172977
 20
104.0598133072306
 30
0.0
 11
202.2722496169837
 21
101.8098133075447
 31
0.0
  0
LINE
  5
3DF
330
1F
100
AcDbEntity
  8
0
  6
Continuous
 62
     7
100
AcDbLine
 10
202.2712496169849
 20
91.80981330754473
 30
0.0
 11
202.2712496169844
 21
96.80981330754473
 31
0.0
  0
LINE
  5
3E0
330
1F
100
AcDbEntity
  8
0
  6
Continuous
 62
     7
100
AcDbLine
 10
202.1712496169844
 20
96.80981330754473
 30
0.0
 11
202.1712496169838
 21
101.8098133075447
 31
0.0
  0
LINE
  5
3E1
330
1F
100
AcDbEntity
  8
0
  6
Continuous
 62
     7
100
AcDbLine
 10
222.2722496169834
 20
104.859813307547
 30
0.0
 11
222.2722496169834
 21
104.759813307547
 31
0.0
  0
LINE
  5
3E2
330
1F
100
AcDbEntity
  8
0
  6
Continuous
 62
     7
100
AcDbLine
 10
222.2722496169834
 20
104.759813307547
 30
0.0
 11
222.2722496169835
 21
104.059813307547
 31
0.0
  0
LINE
  5
3E3
330
1F
100
AcDbEntity
  8
0
  6
Continuous
 62
     7
100
AcDbLine
 10
222.2722496169834
 20
105.559813307547
 30
0.0
 11
222.2722496169834
 21
104.859813307547
 31
0.0
  0
LINE
  5
3E4
330
1F
100
AcDbEntity
  8
0
  6
Continuous
 62
     7
100
AcDbLine
 10
202.2722496169837
 20
101.8098133075447
 30
0.0
 11
202.2712496169844
 21
96.80981330754473
 31
0.0
  0
LINE
  5
3E5
330
1F
100
AcDbEntity
  8
0
  6
Continuous
 62
     7
100
AcDbLine
 10
208.2722496169844
 20
96.80981330754541
 30
0.0
 11
202.2712496169844
 21
96.80981330754473
 31
0.0
  0
LINE
  5
3E6
330
1F
100
AcDbEntity
  8
0
  6
Continuous
 62
     7
100
AcDbLine
 10
239.2722496169843
 20
96.80981330754891
 30
0.0
 11
208.2722496169844
 21
96.80981330754541
 31
0.0
  0
LINE
  5
3E7
330
1F
100
AcDbEntity
  8
0
  6
Continuous
 62
     7
100
AcDbLine
 10
208.2722496169832
 20
106.5598133075454
 30
0.0
 11
222.2722496169832
 21
106.559813307547
 31
0.0
  0
LINE
  5
3E8
330
1F
100
AcDbEntity
  8
0
  6
Continuous
 62
     7
100
AcDbLine
 10
222.2722496169834
 20
104.859813307547
 30
0.0
 11
208.2722496169834
 21
104.8598133075454
 31
0.0
  0
LINE
  5
3E9
330
1F
100
AcDbEntity
  8
0
  6
Continuous
 62
     7
100
AcDbLine
 10
208.2722496169835
 20
104.7598133075454
 30
0.0
 11
222.2722496169834
 21
104.759813307547
 31
0.0
  0
LINE
  5
3EA
330
1F
100
AcDbEntity
  8
0
  6
Continuous
 62
     7
100
AcDbLine
 10
222.2722496169834
 20
105.559813307547
 30
0.0
 11
208.2722496169834
 21
105.5598133075454
 31
0.0
  0
LINE
  5
3EB
330
1F
100
AcDbEntity
  8
0
  6
Continuous
 62
     7
100
AcDbLine
 10
202.9722496166693
 20
104.7598133078589
 30
0.0
 11
202.9722496166693
 21
104.8598133072307
 31
0.0
  0
LINE
  5
3EC
330
1F
100
AcDbEntity
  8
0
  6
Continuous
 62
     7
100
AcDbLine
 10
208.2722496169835
 20
104.0598133075454
 30
0.0
 11
222.2722496169835
 21
104.059813307547
 31
0.0
  0
LINE
  5
3ED
330
1F
100
AcDbEntity
  8
0
  6
Continuous
 62
     7
100
AcDbLine
 10
239.272249616985
 20
91.80981330754891
 30
0.0
 11
208.272249616985
 21
91.80981330754541
 31
0.0
  0
LINE
  5
3EE
330
1F
100
AcDbEntity
  8
0
  6
Continuous
 62
     7
100
AcDbLine
 10
208.272249616985
 20
91.80981330754541
 30
0.0
 11
202.2712496169849
 21
91.80981330754473
 31
0.0
  0
LINE
  5
3EF
330
1F
100
AcDbEntity
  8
0
  6
Continuous
 62
     7
100
AcDbLine
 10
225.2722496169832
 20
106.5598133075473
 30
0.0
 11
225.272249616983
 21
107.2598133075473
 31
0.0
  0
LINE
  5
3F0
330
1F
100
AcDbEntity
  8
0
  6
Continuous
 62
     7
100
AcDbLine
 10
239.272249616983
 20
107.3598133075489
 30
0.0
 11
244.5722496172972
 21
107.3598133072354
 31
0.0
  0
LINE
  5
3F1
330
1F
100
AcDbEntity
  8
0
  6
Continuous
 62
     7
100
AcDbLine
 10
225.272249616983
 20
107.3598133075473
 30
0.0
 11
239.272249616983
 21
107.3598133075489
 31
0.0
  0
LINE
  5
3F2
330
1F
100
AcDbEntity
  8
0
  6
Continuous
 62
     7
100
AcDbLine
 10
244.5722496172972
 20
107.2598133078636
 30
0.0
 11
239.272249616983
 21
107.2598133075489
 31
0.0
  0
LINE
  5
3F3
330
1F
100
AcDbEntity
  8
0
  6
Continuous
 62
     7
100
AcDbLine
 10
239.272249616983
 20
107.2598133075489
 30
0.0
 11
225.272249616983
 21
107.2598133075473
 31
0.0
  0
LINE
  5
3F4
330
1F
100
AcDbEntity
  8
0
  6
Continuous
 62
     7
100
AcDbLine
 10
225.272249616983
 20
107.2598133075473
 30
0.0
 11
225.272249616983
 21
107.3598133075473
 31
0.0
  0
LINE
  5
3F5
330
1F
100
AcDbEntity
  8
0
  6
Continuous
 62
     7
100
AcDbLine
 10
244.5722496172972
 20
107.2598133078636
 30
0.0
 11
245.2722496169832
 21
106.5598133075496
 31
0.0
  0
LINE
  5
3F6
330
1F
100
AcDbEntity
  8
0
  6
Continuous
 62
     7
100
AcDbLine
 10
239.272249616983
 20
109.7598133075489
 30
0.0
 11
225.272249616983
 21
109.7598133075473
 31
0.0
  0
LINE
  5
3F7
330
1F
100
AcDbEntity
  8
0
  6
Continuous
 62
     7
100
AcDbLine
 10
225.272249616983
 20
109.0598133075473
 30
0.0
 11
225.272249616983
 21
109.7598133075473
 31
0.0
  0
LINE
  5
3F8
330
1F
100
AcDbEntity
  8
0
  6
Continuous
 62
     7
100
AcDbLine
 10
225.272249616983
 20
107.3598133075473
 30
0.0
 11
225.272249616983
 21
108.0598133075473
 31
0.0
  0
LINE
  5
3F9
330
1F
100
AcDbEntity
  8
0
  6
Continuous
 62
     7
100
AcDbLine
 10
244.5722496172972
 20
107.3598133072354
 30
0.0
 11
245.272249616669
 21
108.0598133078637
 31
0.0
  0
LINE
  5
3FA
330
1F
100
AcDbEntity
  8
0
  6
Continuous
 62
     7
100
AcDbLine
 10
245.272249616669
 20
108.0598133078637
 30
0.0
 11
239.272249616983
 21
108.0598133075489
 31
0.0
  0
LINE
  5
3FB
330
1F
100
AcDbEntity
  8
0
  6
Continuous
 62
     7
100
AcDbLine
 10
239.272249616983
 20
108.0598133075489
 30
0.0
 11
225.272249616983
 21
108.0598133075473
 31
0.0
  0
LINE
  5
3FC
330
1F
100
AcDbEntity
  8
0
  6
Continuous
 62
     7
100
AcDbLine
 10
239.272249616983
 20
109.0598133075489
 30
0.0
 11
245.272249616983
 21
109.0598133075496
 31
0.0
  0
LINE
  5
3FD
330
1F
100
AcDbEntity
  8
0
  6
Continuous
 62
     7
100
AcDbLine
 10
239.2722496169833
 20
105.5598133075489
 30
0.0
 11
225.2722496169834
 21
105.5598133075473
 31
0.0
  0
LINE
  5
3FE
330
1F
100
AcDbEntity
  8
0
  6
Continuous
 62
     7
100
AcDbLine
 10
225.2722496169834
 20
104.7598133075473
 30
0.0
 11
225.2722496169834
 21
104.8598133075473
 31
0.0
  0
LINE
  5
3FF
330
1F
100
AcDbEntity
  8
0
  6
Continuous
 62
     7
100
AcDbLine
 10
225.2722496169834
 20
104.8598133075473
 30
0.0
 11
225.2722496169834
 21
105.5598133075473
 31
0.0
  0
LINE
  5
400
330
1F
100
AcDbEntity
  8
0
  6
Continuous
 62
     7
100
AcDbLine
 10
225.2722496169835
 20
104.0598133075473
 30
0.0
 11
225.2722496169834
 21
104.7598133075473
 31
0.0
  0
LINE
  5
401
330
1F
100
AcDbEntity
  8
0
  6
Continuous
 62
     7
100
AcDbLine
 10
225.2722496169834
 20
104.8598133075473
 30
0.0
 11
239.2722496169834
 21
104.8598133075489
 31
0.0
  0
LINE
  5
402
330
1F
100
AcDbEntity
  8
0
  6
Continuous
 62
     7
100
AcDbLine
 10
225.2722496169832
 20
106.5598133075473
 30
0.0
 11
239.2722496169832
 21
106.5598133075489
 31
0.0
  0
LINE
  5
403
330
1F
100
AcDbEntity
  8
0
  6
Continuous
 62
     7
100
AcDbLine
 10
239.2722496169832
 20
106.5598133075489
 30
0.0
 11
245.2722496169832
 21
106.5598133075496
 31
0.0
  0
LINE
  5
404
330
1F
100
AcDbEntity
  8
0
  6
Continuous
 62
     7
100
AcDbLine
 10
239.2722496169835
 20
104.0598133075489
 30
0.0
 11
245.2722496169835
 21
104.0598133075496
 31
0.0
  0
LINE
  5
405
330
1F
100
AcDbEntity
  8
0
  6
Continuous
 62
     7
100
AcDbLine
 10
244.5722496172974
 20
104.7598133078636
 30
0.0
 11
245.2722496169835
 21
104.0598133075496
 31
0.0
  0
LINE
  5
406
330
1F
100
AcDbEntity
  8
0
  6
Continuous
 62
     7
100
AcDbLine
 10
244.5722496172974
 20
104.7598133078636
 30
0.0
 11
239.2722496169834
 21
104.7598133075489
 31
0.0
  0
LINE
  5
407
330
1F
100
AcDbEntity
  8
0
  6
Continuous
 62
     7
100
AcDbLine
 10
245.2722496166691
 20
105.5598133078637
 30
0.0
 11
239.2722496169833
 21
105.5598133075489
 31
0.0
  0
LINE
  5
408
330
1F
100
AcDbEntity
  8
0
  6
Continuous
 62
     7
100
AcDbLine
 10
239.2722496169834
 20
104.8598133075489
 30
0.0
 11
244.5722496172974
 21
104.8598133072354
 31
0.0
  0
LINE
  5
409
330
1F
100
AcDbEntity
  8
0
  6
Continuous
 62
     7
100
AcDbLine
 10
244.5722496172974
 20
104.8598133072354
 30
0.0
 11
245.2722496166691
 21
105.5598133078637
 31
0.0
  0
LINE
  5
40A
330
1F
100
AcDbEntity
  8
0
  6
Continuous
 62
     7
100
AcDbLine
 10
239.2722496169834
 20
104.7598133075489
 30
0.0
 11
225.2722496169834
 21
104.7598133075473
 31
0.0
  0
LINE
  5
40B
330
1F
100
AcDbEntity
  8
0
  6
Continuous
 62
     7
100
AcDbLine
 10
225.2722496169835
 20
104.0598133075473
 30
0.0
 11
239.2722496169835
 21
104.0598133075489
 31
0.0
  0
LINE
  5
40C
330
1F
100
AcDbEntity
  8
0
  6
Continuous
 62
     7
100
AcDbLine
 10
225.272249616983
 20
109.0598133075473
 30
0.0
 11
239.272249616983
 21
109.0598133075489
 31
0.0
  0
LINE
  5
40D
330
1F
100
AcDbEntity
  8
0
  6
Continuous
 62
     7
100
AcDbLine
 10
245.2722496169843
 20
96.80981330754962
 30
0.0
 11
239.2722496169843
 21
96.80981330754891
 31
0.0
  0
LINE
  5
40E
330
1F
100
AcDbEntity
  8
0
  6
Continuous
 62
     7
100
AcDbLine
 10
245.2732496169849
 20
91.80981330754962
 30
0.0
 11
239.272249616985
 21
91.80981330754891
 31
0.0
  0
LINE
  5
40F
330
1F
100
AcDbEntity
  8
0
  6
Continuous
 62
     7
100
AcDbLine
 10
244.5722496172974
 20
104.8598133072354
 30
0.0
 11
244.5722496172974
 21
104.7598133078636
 31
0.0
  0
LINE
  5
410
330
1F
100
AcDbEntity
  8
0
  6
Continuous
 62
     7
100
AcDbLine
 10
244.5722496172972
 20
107.3598133072354
 30
0.0
 11
244.5722496172972
 21
107.2598133078636
 31
0.0
  0
LINE
  5
411
330
1F
100
AcDbEntity
  8
0
  6
Continuous
 62
     7
100
AcDbLine
 10
244.5722496169828
 20
109.8598133075495
 30
0.0
 11
245.2722496169828
 21
110.5598133075496
 31
0.0
  0
LINE
  5
412
330
1F
100
AcDbEntity
  8
0
  6
Continuous
 62
     7
100
AcDbLine
 10
245.2722496169828
 20
110.5598133075496
 30
0.0
 11
245.2722496169796
 21
138.8098133075496
 31
0.0
  0
LINE
  5
413
330
1F
100
AcDbEntity
  8
0
  6
Continuous
 62
     7
100
AcDbLine
 10
245.2722496166691
 20
105.5598133078637
 30
0.0
 11
245.2722496169832
 21
106.5598133075496
 31
0.0
  0
LINE
  5
414
330
1F
100
AcDbEntity
  8
0
  6
Continuous
 62
     7
100
AcDbLine
 10
245.2722496169837
 20
101.8098133075496
 30
0.0
 11
247.2722496169835
 21
101.8098133075498
 31
0.0
  0
LINE
  5
415
330
1F
100
AcDbEntity
  8
0
  6
Continuous
 62
     7
100
AcDbLine
 10
245.2722496169843
 20
96.80981330754962
 30
0.0
 11
247.2722496169842
 21
96.80981330754982
 31
0.0
  0
LINE
  5
416
330
1F
100
AcDbEntity
  8
0
  6
Continuous
 62
     7
100
AcDbLine
 10
245.2722496169837
 20
101.8098133075496
 30
0.0
 11
245.2722496169835
 21
104.0598133075496
 31
0.0
  0
LINE
  5
417
330
1F
100
AcDbEntity
  8
0
  6
Continuous
 62
     7
100
AcDbLine
 10
245.2732496169849
 20
91.80981330754962
 30
0.0
 11
245.2722496169843
 21
96.80981330754962
 31
0.0
  0
LINE
  5
418
330
1F
100
AcDbEntity
  8
0
  6
Continuous
 62
     7
100
AcDbLine
 10
97.72225054482536
 20
155.3098133075492
 30
0.0
 11
81.72225054482536
 21
155.3098133075471
 31
0.0
  0
LINE
  5
419
330
1F
100
AcDbEntity
  8
0
  6
Continuous
 62
     7
100
AcDbLine
 10
115.7222505448254
 20
155.3098133075471
 30
0.0
 11
113.7222505448254
 21
155.3098133075473
 31
0.0
  0
LINE
  5
41A
330
1F
100
AcDbEntity
  8
1
  6
Continuous
 62
     2
100
AcDbLine
 10
81.72225054482536
 20
155.3098133075471
 30
0.0
 11
81.72225054482536
 21
155.4098133075473
 31
0.0
  0
LINE
  5
41B
330
1F
100
AcDbEntity
  8
0
  6
Continuous
 62
     7
100
AcDbLine
 10
81.72225054482536
 20
155.3098133075471
 30
0.0
 11
79.72225054482536
 21
155.3098133075471
 31
0.0
  0
LINE
  5
41C
330
1F
100
AcDbEntity
  8
1
  6
Continuous
 62
     2
100
AcDbLine
 10
113.7222505448254
 20
155.3098133075473
 30
0.0
 11
113.7222505448254
 21
155.4098133075473
 31
0.0
  0
LINE
  5
41D
330
1F
100
AcDbEntity
  8
0
  6
Continuous
 62
     7
100
AcDbLine
 10
113.7222505448254
 20
155.3098133075473
 30
0.0
 11
97.72225054482536
 21
155.3098133075492
 31
0.0
  0
ARC
  5
41E
330
1F
100
AcDbEntity
  8
1
  6
DASHED
 62
     2
100
AcDbCircle
 10
122.4722505448257
 20
99.30981330755053
 30
0.0
 40
40.28663395418554
100
AcDbArc
 50
311.8697655689322
 51
0.0
  0
ARC
  5
41F
330
1F
100
AcDbEntity
  8
1
  6
DASHED
 62
     2
100
AcDbCircle
 10
72.97225054482536
 20
99.30981330755033
 30
0.0
 40
40.28663395418576
100
AcDbArc
 50
179.9999999999997
 51
228.1302344310675
  0
ARC
  5
420
330
1F
100
AcDbEntity
  8
0
  6
Continuous
 62
     7
100
AcDbCircle
 10
117.672250544832
 20
78.30981330755172
 30
0.0
 40
4.000000000003297
100
AcDbArc
 50
180.0000000000171
 51
269.9999999999599
  0
ARC
  5
421
330
1F
100
AcDbEntity
  8
0
  6
Continuous
 62
     7
100
AcDbCircle
 10
117.672250544832
 20
78.30981330755172
 30
0.0
 40
1.499999999999901
100
AcDbArc
 50
180.0000000000076
 51
270.0
  0
ARC
  5
422
330
1F
100
AcDbEntity
  8
0
  6
Continuous
 62
     7
100
AcDbCircle
 10
123.1874263884169
 20
90.33827366751412
 30
0.0
 40
1.499999999999942
100
AcDbArc
 50
339.9999999999991
 51
94.55775611441133
  0
ARC
  5
423
330
1F
100
AcDbEntity
  8
0
  6
Continuous
 62
     7
100
AcDbCircle
 10
117.172250544828
 20
80.60981330754903
 30
0.0
 40
3.49999999999917
100
AcDbArc
 50
58.95177800651801
 51
180.0
  0
ARC
  5
424
330
1F
100
AcDbEntity
  8
0
  6
Continuous
 62
     7
100
AcDbCircle
 10
120.4722505448275
 20
85.50981330754901
 30
0.0
 40
2.39999999999948
100
AcDbArc
 50
238.9517780065424
 51
340.0000000000015
  0
ARC
  5
425
330
1F
100
AcDbEntity
  8
0
  6
Continuous
 62
     7
100
AcDbCircle
 10
117.1827284269405
 20
79.79179542542941
 30
0.0
 40
1.010477882108392
100
AcDbArc
 50
56.1819258985274
 51
180.0000000000113
  0
ARC
  5
426
330
1F
100
AcDbEntity
  8
0
  6
Continuous
 62
     7
100
AcDbCircle
 10
120.4722505448309
 20
84.70227330755013
 30
0.0
 40
4.899999999999525
100
AcDbArc
 50
236.1819258985261
 51
316.1676606092095
  0
ARC
  5
427
330
1F
100
AcDbEntity
  8
0
  6
Continuous
 62
     7
100
AcDbCircle
 10
122.4722505447503
 20
99.30981330754743
 30
0.0
 40
7.500000000002899
100
AcDbArc
 50
270.0000000005821
 51
274.5577561149815
  0
ARC
  5
428
330
1F
100
AcDbEntity
  8
0
  6
Continuous
 62
     7
100
AcDbCircle
 10
150.472250544827
 20
81.30981330755431
 30
0.0
 40
6.999999999999907
100
AcDbArc
 50
310.0000000000062
 51
318.000000000006
  0
ARC
  5
429
330
1F
100
AcDbEntity
  8
0
  6
Continuous
 62
     7
100
AcDbCircle
 10
150.472250544827
 20
81.30981330755431
 30
0.0
 40
6.900000000000057
100
AcDbArc
 50
302.0000000000064
 51
310.0000000000062
  0
ARC
  5
42A
330
1F
100
AcDbEntity
  8
0
  6
Continuous
 62
     7
100
AcDbCircle
 10
150.472250544827
 20
81.30981330755431
 30
0.0
 40
7.000000000000115
100
AcDbArc
 50
294.0000000000068
 51
302.000000000007
  0
ARC
  5
42B
330
1F
100
AcDbEntity
  8
0
  6
Continuous
 62
     7
100
AcDbCircle
 10
150.472250544827
 20
81.30981330755431
 30
0.0
 40
6.900000000000004
100
AcDbArc
 50
286.0000000000069
 51
294.0000000000064
  0
ARC
  5
42C
330
1F
100
AcDbEntity
  8
0
  6
Continuous
 62
     7
100
AcDbCircle
 10
150.472250544827
 20
81.30981330755431
 30
0.0
 40
7.000000000000023
100
AcDbArc
 50
278.0000000000068
 51
286.0000000000058
  0
ARC
  5
42D
330
1F
100
AcDbEntity
  8
0
  6
Continuous
 62
     7
100
AcDbCircle
 10
150.472250544827
 20
81.30981330755431
 30
0.0
 40
6.899999999999977
100
AcDbArc
 50
270.0000000000056
 51
278.0000000000061
  0
ARC
  5
42E
330
1F
100
AcDbEntity
  8
0
  6
Continuous
 62
     7
100
AcDbCircle
 10
150.472250544827
 20
81.30981330755431
 30
0.0
 40
7.00000000000009
100
AcDbArc
 50
358.0000000000068
 51
6.00000000000601
  0
ARC
  5
42F
330
1F
100
AcDbEntity
  8
0
  6
Continuous
 62
     7
100
AcDbCircle
 10
150.472250544827
 20
81.30981330755431
 30
0.0
 40
6.900000000000127
100
AcDbArc
 50
350.0000000000064
 51
358.0000000000074
  0
ARC
  5
430
330
1F
100
AcDbEntity
  8
0
  6
Continuous
 62
     7
100
AcDbCircle
 10
150.4722505448375
 20
81.30981330757693
 30
0.0
 40
6.900000000000468
100
AcDbArc
 50
333.9999999997999
 51
336.512391506794
  0
ARC
  5
431
330
1F
100
AcDbEntity
  8
0
  6
Continuous
 62
     7
100
AcDbCircle
 10
150.4722505448265
 20
81.30981330755263
 30
0.0
 40
6.999999999999471
100
AcDbArc
 50
326.00000000002
 51
327.6076345141462
  0
ARC
  5
432
330
1F
100
AcDbEntity
  8
0
  6
Continuous
 62
     7
100
AcDbCircle
 10
150.472250544827
 20
81.30981330755431
 30
0.0
 40
6.900000000000007
100
AcDbArc
 50
318.0000000000072
 51
326.0000000000065
  0
ARC
  5
433
330
1F
100
AcDbEntity
  8
0
  6
Continuous
 62
     7
100
AcDbCircle
 10
150.4722505448232
 20
81.30981330754453
 30
0.0
 40
6.900000000000653
100
AcDbArc
 50
336.512391507088
 51
342.0000000000938
  0
ARC
  5
434
330
1F
100
AcDbEntity
  8
0
  6
Continuous
 62
     7
100
AcDbCircle
 10
150.472250544827
 20
81.30981330755431
 30
0.0
 40
7.000000000000065
100
AcDbArc
 50
342.0000000000067
 51
350.0000000000069
  0
ARC
  5
435
330
1F
100
AcDbEntity
  8
0
  6
Continuous
 62
     7
100
AcDbCircle
 10
150.472250544827
 20
81.30981330755431
 30
0.0
 40
7.000000000000081
100
AcDbArc
 50
327.6076345141323
 51
334.000000000006
  0
ARC
  5
436
330
1F
100
AcDbEntity
  8
0
  6
Continuous
 62
     7
100
AcDbCircle
 10
148.9722505448223
 20
77.80981330755522
 30
0.0
 40
1.0
100
AcDbArc
 50
180.0
 51
270.0000000000114
  0
ARC
  5
437
330
1F
100
AcDbEntity
  8
0
  6
Continuous
 62
     7
100
AcDbCircle
 10
150.4722505448301
 20
81.30981330755553
 30
0.0
 40
4.500000000000199
100
AcDbArc
 50
270.0000000000076
 51
90.00000000000506
  0
ARC
  5
438
330
1F
100
AcDbEntity
  8
0
  6
Continuous
 62
     7
100
AcDbCircle
 10
122.4722505448247
 20
99.30981330754743
 30
0.0
 40
7.500000000002975
100
AcDbArc
 50
54.11567091269953
 51
270.0000000000137
  0
ARC
  5
439
330
1F
100
AcDbEntity
  8
0
  6
Continuous
 62
     7
100
AcDbCircle
 10
150.472250544837
 20
81.30981330753092
 30
0.0
 40
6.899999999999527
100
AcDbArc
 50
22.00000000021763
 51
24.39616528295285
  0
ARC
  5
43A
330
1F
100
AcDbEntity
  8
0
  6
Continuous
 62
     7
100
AcDbCircle
 10
150.472250544822
 20
81.30981330756403
 30
0.0
 40
6.899999999999536
100
AcDbArc
 50
24.39616528265098
 51
29.9999999999157
  0
ARC
  5
43B
330
1F
100
AcDbEntity
  8
0
  6
Continuous
 62
     7
100
AcDbCircle
 10
150.472250544827
 20
81.30981330755431
 30
0.0
 40
6.900000000000085
100
AcDbArc
 50
70.0000000000066
 51
78.00000000000661
  0
ARC
  5
43C
330
1F
100
AcDbEntity
  8
0
  6
Continuous
 62
     7
100
AcDbCircle
 10
150.472250544827
 20
81.30981330755431
 30
0.0
 40
7.000000000000069
100
AcDbArc
 50
62.00000000000627
 51
70.0000000000062
  0
ARC
  5
43D
330
1F
100
AcDbEntity
  8
0
  6
Continuous
 62
     7
100
AcDbCircle
 10
150.4722505448284
 20
81.30981330754302
 30
0.0
 40
6.899999999999774
100
AcDbArc
 50
6.000000000101
 51
7.91368707078663
  0
ARC
  5
43E
330
1F
100
AcDbEntity
  8
0
  6
Continuous
 62
     7
100
AcDbCircle
 10
150.4722505448263
 20
81.30981330755803
 30
0.0
 40
6.899999999999803
100
AcDbArc
 50
7.9136870706608
 51
13.99999999997528
  0
ARC
  5
43F
330
1F
100
AcDbEntity
  8
0
  6
Continuous
 62
     7
100
AcDbCircle
 10
150.472250544827
 20
81.30981330755431
 30
0.0
 40
7.000000000000029
100
AcDbArc
 50
78.00000000000617
 51
86.0000000000066
  0
ARC
  5
440
330
1F
100
AcDbEntity
  8
0
  6
Continuous
 62
     7
100
AcDbCircle
 10
150.472250544827
 20
81.30981330755431
 30
0.0
 40
6.900000000000079
100
AcDbArc
 50
86.00000000000648
 51
90.00000000000661
  0
ARC
  5
441
330
1F
100
AcDbEntity
  8
0
  6
Continuous
 62
     7
100
AcDbCircle
 10
150.472250544827
 20
81.30981330755431
 30
0.0
 40
6.900000000000031
100
AcDbArc
 50
38.00000000000674
 51
46.00000000000599
  0
ARC
  5
442
330
1F
100
AcDbEntity
  8
0
  6
Continuous
 62
     7
100
AcDbCircle
 10
150.472250544827
 20
81.30981330755431
 30
0.0
 40
7.000000000000013
100
AcDbArc
 50
14.00000000000622
 51
22.00000000000609
  0
ARC
  5
443
330
1F
100
AcDbEntity
  8
0
  6
Continuous
 62
     7
100
AcDbCircle
 10
150.472250544829
 20
81.30981330755101
 30
0.0
 40
7.000000000000044
100
AcDbArc
 50
30.00000000003767
 51
32.3923654858517
  0
ARC
  5
444
330
1F
100
AcDbEntity
  8
0
  6
Continuous
 62
     7
100
AcDbCircle
 10
150.472250544827
 20
81.30981330755431
 30
0.0
 40
6.999999999999936
100
AcDbArc
 50
32.39236548582019
 51
38.00000000000674
  0
ARC
  5
445
330
1F
100
AcDbEntity
  8
0
  6
Continuous
 62
     7
100
AcDbCircle
 10
150.472250544827
 20
81.30981330755431
 30
0.0
 40
6.90000000000006
100
AcDbArc
 50
54.00000000000617
 51
62.00000000000708
  0
ARC
  5
446
330
1F
100
AcDbEntity
  8
0
  6
Continuous
 62
     7
100
AcDbCircle
 10
150.472250544827
 20
81.30981330755431
 30
0.0
 40
6.999999999999994
100
AcDbArc
 50
46.00000000000656
 51
54.00000000000644
  0
ARC
  5
447
330
1F
100
AcDbEntity
  8
0
  6
Continuous
 62
     7
100
AcDbCircle
 10
148.9722505448216
 20
84.80981330755533
 30
0.0
 40
1.0
100
AcDbArc
 50
90.00000000000651
 51
180.0
  0
ARC
  5
448
330
1F
100
AcDbEntity
  8
0
  6
Continuous
 62
     7
100
AcDbCircle
 10
137.7647103061061
 20
84.50981354626843
 30
0.0
 40
7.707540238715658
100
AcDbArc
 50
267.4654502884338
 51
136.1676606092114
  0
ARC
  5
449
330
1F
100
AcDbEntity
  8
0
  6
Continuous
 62
     7
100
AcDbCircle
 10
53.97225068377353
 20
138.8098131347446
 30
0.0
 40
3.000000138948141
100
AcDbArc
 50
89.99875863099649
 51
179.999996699681
  0
ARC
  5
44A
330
1F
100
AcDbEntity
  8
0
  6
Continuous
 62
     7
100
AcDbCircle
 10
141.4722504197423
 20
138.8097449794804
 30
0.0
 40
3.00000012586124
100
AcDbArc
 50
0.00130496992769
 51
89.99870504119299
  0
ARC
  5
44B
330
1F
100
AcDbEntity
  8
0
  6
Continuous
 62
     7
100
AcDbCircle
 10
100.7222505448254
 20
124.3098133075496
 30
0.0
 40
0.25
100
AcDbArc
 50
270.0
 51
90.0
  0
ARC
  5
44C
330
1F
100
AcDbEntity
  8
0
  6
Continuous
 62
     7
100
AcDbCircle
 10
99.72225054482536
 20
122.7534799186854
 30
0.0
 40
0.25
100
AcDbArc
 50
180.0
 51
299.9706156499965
  0
ARC
  5
44D
330
1F
100
AcDbEntity
  8
0
  6
Continuous
 62
     7
100
AcDbCircle
 10
98.72225054482536
 20
122.1768132520187
 30
0.0
 40
0.25
100
AcDbArc
 50
180.0
 51
0.0
  0
ARC
  5
44E
330
1F
100
AcDbEntity
  8
0
  6
Continuous
 62
     7
100
AcDbCircle
 10
97.72225054482536
 20
121.600146585352
 30
0.0
 40
0.2500000000000075
100
AcDbArc
 50
240.0293843500035
 51
60.02938435001649
  0
ARC
  5
44F
330
1F
100
AcDbEntity
  8
0
  6
Continuous
 62
     7
100
AcDbCircle
 10
95.72225054482536
 20
122.7534799186854
 30
0.0
 40
0.25
100
AcDbArc
 50
180.0
 51
240.0293843500035
  0
ARC
  5
450
330
1F
100
AcDbEntity
  8
0
  6
Continuous
 62
     7
100
AcDbCircle
 10
94.72225054482536
 20
123.3198133075496
 30
0.0
 40
0.25
100
AcDbArc
 50
180.0
 51
0.0
  0
ARC
  5
451
330
1F
100
AcDbEntity
  8
0
  6
Continuous
 62
     7
100
AcDbCircle
 10
96.72225054482536
 20
123.3198133075496
 30
0.0
 40
0.25
100
AcDbArc
 50
180.0
 51
0.0
  0
ARC
  5
452
330
1F
100
AcDbEntity
  8
0
  6
Continuous
 62
     7
100
AcDbCircle
 10
100.7222505448254
 20
123.330146585352
 30
0.0
 40
0.2499999999999862
100
AcDbArc
 50
299.970615649988
 51
119.9706156499948
  0
ARC
  5
453
330
1F
100
AcDbEntity
  8
0
  6
Continuous
 62
     7
100
AcDbCircle
 10
95.72225054482536
 20
125.8661466964138
 30
0.0
 40
0.25
100
AcDbArc
 50
0.0
 51
180.0
  0
ARC
  5
454
330
1F
100
AcDbEntity
  8
0
  6
Continuous
 62
     7
100
AcDbCircle
 10
94.72225054482536
 20
125.2998133075496
 30
0.0
 40
0.25
100
AcDbArc
 50
0.0
 51
180.0
  0
ARC
  5
455
330
1F
100
AcDbEntity
  8
0
  6
Continuous
 62
     7
100
AcDbCircle
 10
96.72225054482536
 20
126.4428133630805
 30
0.0
 40
0.2499999999999531
100
AcDbArc
 50
36.74339513782721
 51
180.0
  0
ARC
  5
456
330
1F
100
AcDbEntity
  8
0
  6
Continuous
 62
     7
100
AcDbCircle
 10
98.72225054482536
 20
126.4428133630805
 30
0.0
 40
0.25
100
AcDbArc
 50
0.0
 51
143.2566048621728
  0
ARC
  5
457
330
1F
100
AcDbEntity
  8
0
  6
Continuous
 62
     7
100
AcDbCircle
 10
100.7222505448254
 20
125.2894800297471
 30
0.0
 40
0.2500000000000359
100
AcDbArc
 50
240.0293843499922
 51
60.02938435001357
  0
ARC
  5
458
330
1F
100
AcDbEntity
  8
0
  6
Continuous
 62
     7
100
AcDbCircle
 10
99.72225054482536
 20
125.8661466964138
 30
0.0
 40
0.2500000000000198
100
AcDbArc
 50
60.02938435000511
 51
180.0
  0
ARC
  5
459
330
1F
100
AcDbEntity
  8
0
  6
Continuous
 62
     7
100
AcDbCircle
 10
122.4722505448257
 20
99.30981330755053
 30
0.0
 40
2.499999999999762
100
AcDbArc
 50
0.04440496082051
 51
90.00000000000685
  0
ARC
  5
45A
330
1F
100
AcDbEntity
  8
0
  6
Continuous
 62
     7
100
AcDbCircle
 10
122.4722505448257
 20
99.30981330755053
 30
0.0
 40
2.500000000000259
100
AcDbArc
 50
180.0444049608303
 51
0.04440496082051
  0
ARC
  5
45B
330
1F
100
AcDbEntity
  8
0
  6
Continuous
 62
     7
100
AcDbCircle
 10
122.4722505448257
 20
99.30981330755053
 30
0.0
 40
2.499999999999773
100
AcDbArc
 50
90.00000000000685
 51
180.0444049608303
  0
ARC
  5
45C
330
1F
100
AcDbEntity
  8
0
  6
Continuous
 62
     7
100
AcDbCircle
 10
72.97225054482536
 20
99.30981330755033
 30
0.0
 40
2.50000000000006
100
AcDbArc
 50
0.04440496082506
 51
180.0
  0
ARC
  5
45D
330
1F
100
AcDbEntity
  8
0
  6
Continuous
 62
     7
100
AcDbCircle
 10
57.67979078354458
 20
84.50981354626852
 30
0.0
 40
7.707540238715528
100
AcDbArc
 50
43.83233939078846
 51
267.4654502884197
  0
ARC
  5
45E
330
1F
100
AcDbEntity
  8
0
  6
Continuous
 62
     7
100
AcDbCircle
 10
44.97225054482355
 20
81.30981330755431
 30
0.0
 40
6.900000000000041
100
AcDbArc
 50
261.9999999999941
 51
269.9999999999933
  0
ARC
  5
45F
330
1F
100
AcDbEntity
  8
0
  6
Continuous
 62
     7
100
AcDbCircle
 10
44.97225054482355
 20
81.30981330755431
 30
0.0
 40
6.900000000000046
100
AcDbArc
 50
213.999999999993
 51
221.9999999999929
  0
ARC
  5
460
330
1F
100
AcDbEntity
  8
0
  6
Continuous
 62
     7
100
AcDbCircle
 10
44.97225054482355
 20
81.30981330755431
 30
0.0
 40
7.000000000000102
100
AcDbArc
 50
221.9999999999937
 51
229.9999999999937
  0
ARC
  5
461
330
1F
100
AcDbEntity
  8
0
  6
Continuous
 62
     7
100
AcDbCircle
 10
44.97225054482355
 20
81.30981330755431
 30
0.0
 40
7.000000000000028
100
AcDbArc
 50
237.9999999999935
 51
245.9999999999933
  0
ARC
  5
462
330
1F
100
AcDbEntity
  8
0
  6
Continuous
 62
     7
100
AcDbCircle
 10
44.97225054482355
 20
81.30981330755431
 30
0.0
 40
6.900000000000049
100
AcDbArc
 50
245.9999999999938
 51
253.9999999999933
  0
ARC
  5
463
330
1F
100
AcDbEntity
  8
0
  6
Continuous
 62
     7
100
AcDbCircle
 10
44.97225054482355
 20
81.30981330755431
 30
0.0
 40
7.000000000000059
100
AcDbArc
 50
253.9999999999937
 51
261.999999999993
  0
ARC
  5
464
330
1F
100
AcDbEntity
  8
0
  6
Continuous
 62
     7
100
AcDbCircle
 10
46.47225054482815
 20
77.80981330755522
 30
0.0
 40
1.0
100
AcDbArc
 50
269.9999999999968
 51
0.0
  0
ARC
  5
465
330
1F
100
AcDbEntity
  8
0
  6
Continuous
 62
     7
100
AcDbCircle
 10
74.97225054482297
 20
85.50981330754901
 30
0.0
 40
2.399999999999377
100
AcDbArc
 50
200.0000000000001
 51
301.048221993455
  0
ARC
  5
466
330
1F
100
AcDbEntity
  8
0
  6
Continuous
 62
     7
100
AcDbCircle
 10
74.97225054481967
 20
84.70227330755021
 30
0.0
 40
4.899999999999495
100
AcDbArc
 50
223.8323393907899
 51
303.8180741014738
  0
ARC
  5
467
330
1F
100
AcDbEntity
  8
0
  6
Continuous
 62
     7
100
AcDbCircle
 10
72.25707470123368
 20
90.33827366751412
 30
0.0
 40
1.499999999999987
100
AcDbArc
 50
85.442243885593
 51
199.9999999999992
  0
ARC
  5
468
330
1F
100
AcDbEntity
  8
0
  6
Continuous
 62
     7
100
AcDbCircle
 10
78.26177266271017
 20
79.79179542542941
 30
0.0
 40
1.010477882108603
100
AcDbArc
 50
359.9999999999952
 51
123.8180741014746
  0
ARC
  5
469
330
1F
100
AcDbEntity
  8
0
  6
Continuous
 62
     7
100
AcDbCircle
 10
78.27225054482258
 20
80.60981330754892
 30
0.0
 40
3.499999999999261
100
AcDbArc
 50
0.00000000000186
 51
121.0482219934812
  0
ARC
  5
46A
330
1F
100
AcDbEntity
  8
0
  6
Continuous
 62
     7
100
AcDbCircle
 10
77.77225054482065
 20
78.30981330754933
 30
0.0
 40
1.499999999997726
100
AcDbArc
 50
269.9999999999197
 51
0.00000000008685
  0
ARC
  5
46B
330
1F
100
AcDbEntity
  8
0
  6
Continuous
 62
     7
100
AcDbCircle
 10
77.77225054482184
 20
78.30981330755053
 30
0.0
 40
4.0
100
AcDbArc
 50
269.9999999999927
 51
0.0
  0
ARC
  5
46C
330
1F
100
AcDbEntity
  8
0
  6
Continuous
 62
     7
100
AcDbCircle
 10
44.97225054482355
 20
81.30981330755431
 30
0.0
 40
6.900000000000063
100
AcDbArc
 50
133.9999999999942
 51
141.9999999999933
  0
ARC
  5
46D
330
1F
100
AcDbEntity
  8
0
  6
Continuous
 62
     7
100
AcDbCircle
 10
44.97225054482741
 20
81.30981330756192
 30
0.0
 40
6.899999999999608
100
AcDbArc
 50
150.0000000000645
 51
156.5123915070924
  0
ARC
  5
46E
330
1F
100
AcDbEntity
  8
0
  6
Continuous
 62
     7
100
AcDbCircle
 10
44.97225054482355
 20
81.30981330755431
 30
0.0
 40
7.000000000000059
100
AcDbArc
 50
141.9999999999932
 51
149.9999999999935
  0
ARC
  5
46F
330
1F
100
AcDbEntity
  8
0
  6
Continuous
 62
     7
100
AcDbCircle
 10
44.97225054482355
 20
81.30981330755431
 30
0.0
 40
6.900000000000011
100
AcDbArc
 50
165.9999999999931
 51
173.9999999999935
  0
ARC
  5
470
330
1F
100
AcDbEntity
  8
0
  6
Continuous
 62
     7
100
AcDbCircle
 10
44.97225054482355
 20
81.30981330755431
 30
0.0
 40
6.999999999999957
100
AcDbArc
 50
189.9999999999932
 51
197.9999999999933
  0
ARC
  5
471
330
1F
100
AcDbEntity
  8
0
  6
Continuous
 62
     7
100
AcDbCircle
 10
44.97225054482679
 20
81.30981330754601
 30
0.0
 40
6.90000000000058
100
AcDbArc
 50
197.9999999999194
 51
204.396165282688
  0
ARC
  5
472
330
1F
100
AcDbEntity
  8
0
  6
Continuous
 62
     7
100
AcDbCircle
 10
44.97225054480763
 20
81.30981330758821
 30
0.0
 40
6.900000000000549
100
AcDbArc
 50
204.3961652830729
 51
206.0000000003049
  0
ARC
  5
473
330
1F
100
AcDbEntity
  8
0
  6
Continuous
 62
     7
100
AcDbCircle
 10
44.97225054480962
 20
81.30981330752103
 30
0.0
 40
6.899999999999569
100
AcDbArc
 50
156.5123915067221
 51
157.9999999996941
  0
ARC
  5
474
330
1F
100
AcDbEntity
  8
0
  6
Continuous
 62
     7
100
AcDbCircle
 10
44.9722505448232
 20
81.30981330755161
 30
0.0
 40
6.899999999999666
100
AcDbArc
 50
181.9999999999713
 51
187.9136870706936
  0
ARC
  5
475
330
1F
100
AcDbEntity
  8
0
  6
Continuous
 62
     7
100
AcDbCircle
 10
44.9722505448219
 20
81.30981330756482
 30
0.0
 40
6.900000000000181
100
AcDbArc
 50
187.9136870708038
 51
190.0000000000813
  0
ARC
  5
476
330
1F
100
AcDbEntity
  8
0
  6
Continuous
 62
     7
100
AcDbCircle
 10
44.97225054482355
 20
81.30981330755431
 30
0.0
 40
7.00000000000013
100
AcDbArc
 50
157.9999999999931
 51
165.9999999999933
  0
ARC
  5
477
330
1F
100
AcDbEntity
  8
0
  6
Continuous
 62
     7
100
AcDbCircle
 10
44.97225054482355
 20
81.30981330755431
 30
0.0
 40
6.999999999999985
100
AcDbArc
 50
205.999999999994
 51
213.9999999999934
  0
ARC
  5
478
330
1F
100
AcDbEntity
  8
0
  6
Continuous
 62
     7
100
AcDbCircle
 10
44.97225054482355
 20
81.30981330755431
 30
0.0
 40
7.000000000000027
100
AcDbArc
 50
173.9999999999931
 51
181.9999999999931
  0
ARC
  5
479
330
1F
100
AcDbEntity
  8
0
  6
Continuous
 62
     7
100
AcDbCircle
 10
44.97225054482355
 20
81.30981330755431
 30
0.0
 40
6.900000000000007
100
AcDbArc
 50
229.9999999999927
 51
237.9999999999932
  0
ARC
  5
47A
330
1F
100
AcDbEntity
  8
0
  6
Continuous
 62
     7
100
AcDbCircle
 10
72.97225054482604
 20
99.30981330754743
 30
0.0
 40
7.500000000002899
100
AcDbArc
 50
269.9999999999926
 51
125.8843290873019
  0
ARC
  5
47B
330
1F
100
AcDbEntity
  8
0
  6
Continuous
 62
     7
100
AcDbCircle
 10
72.97225054490005
 20
99.30981330754751
 30
0.0
 40
7.500000000003041
100
AcDbArc
 50
265.4422438850194
 51
269.9999999994272
  0
ARC
  5
47C
330
1F
100
AcDbEntity
  8
0
  6
Continuous
 62
     7
100
AcDbCircle
 10
44.97225054482036
 20
81.30981330755542
 30
0.0
 40
4.5
100
AcDbArc
 50
89.99999999999358
 51
269.9999999999935
  0
ARC
  5
47D
330
1F
100
AcDbEntity
  8
0
  6
Continuous
 62
     7
100
AcDbCircle
 10
44.97225054482355
 20
81.30981330755431
 30
0.0
 40
6.900000000000006
100
AcDbArc
 50
89.99999999999345
 51
93.99999999999365
  0
ARC
  5
47E
330
1F
100
AcDbEntity
  8
0
  6
Continuous
 62
     7
100
AcDbCircle
 10
44.97225054482355
 20
81.30981330755431
 30
0.0
 40
7.000000000000095
100
AcDbArc
 50
93.99999999999365
 51
101.999999999993
  0
ARC
  5
47F
330
1F
100
AcDbEntity
  8
0
  6
Continuous
 62
     7
100
AcDbCircle
 10
44.97225054482355
 20
81.30981330755431
 30
0.0
 40
6.900000000000075
100
AcDbArc
 50
101.9999999999925
 51
109.9999999999934
  0
ARC
  5
480
330
1F
100
AcDbEntity
  8
0
  6
Continuous
 62
     7
100
AcDbCircle
 10
44.97225054482355
 20
81.30981330755431
 30
0.0
 40
6.999999999999998
100
AcDbArc
 50
109.9999999999937
 51
117.9999999999936
  0
ARC
  5
481
330
1F
100
AcDbEntity
  8
0
  6
Continuous
 62
     7
100
AcDbCircle
 10
44.97225054482355
 20
81.30981330755431
 30
0.0
 40
6.900000000000057
100
AcDbArc
 50
117.9999999999936
 51
125.9999999999935
  0
ARC
  5
482
330
1F
100
AcDbEntity
  8
0
  6
Continuous
 62
     7
100
AcDbCircle
 10
46.472250544829
 20
84.80981330755533
 30
0.0
 40
1.0
100
AcDbArc
 50
0.0
 51
89.99999999999675
  0
ARC
  5
483
330
1F
100
AcDbEntity
  8
0
  6
Continuous
 62
     7
100
AcDbCircle
 10
44.97225054482355
 20
81.30981330755431
 30
0.0
 40
7.000000000000023
100
AcDbArc
 50
125.9999999999934
 51
133.9999999999933
  0
ARC
  5
484
330
1F
100
AcDbEntity
  8
0
  6
Continuous
 62
     7
100
AcDbCircle
 10
205.2722497416147
 20
138.8098132936462
 30
0.0
 40
3.000000124635231
100
AcDbArc
 50
89.99999546954253
 51
179.9999997345582
  0
ARC
  5
485
330
1F
100
AcDbEntity
  8
0
  6
Continuous
 62
     7
100
AcDbCircle
 10
242.2722494783814
 20
138.809745092198
 30
0.0
 40
3.000000139373737
100
AcDbArc
 50
0.00130281718789
 51
89.99994189512117
  0
ARC
  5
486
330
1F
100
AcDbEntity
  8
0
  6
Continuous
 62
     7
100
AcDbCircle
 10
72.97225054482536
 20
99.30981330755033
 30
0.0
 40
2.5
100
AcDbArc
 50
180.0
 51
0.04440496082506
  0
CIRCLE
  5
487
330
1F
100
AcDbEntity
  8
0
  6
Continuous
 62
     7
100
AcDbCircle
 10
122.4722505448257
 20
99.30981330755053
 30
0.0
 40
5.100000000000108
  0
CIRCLE
  5
488
330
1F
100
AcDbEntity
  8
0
  6
Continuous
 62
     7
100
AcDbCircle
 10
130.9722505448291
 20
95.30981330755291
 30
0.0
 40
3.0
  0
CIRCLE
  5
489
330
1F
100
AcDbEntity
  8
0
  6
Continuous
 62
     7
100
AcDbCircle
 10
64.47225054482149
 20
95.30981330755291
 30
0.0
 40
3.000000000000085
  0
CIRCLE
  5
48A
330
1F
100
AcDbEntity
  8
0
  6
Continuous
 62
     7
100
AcDbCircle
 10
72.97225054482536
 20
99.30981330755033
 30
0.0
 40
5.100000000000023
  0
SPLINE
  5
48B
330
1F
100
AcDbEntity
  8
0
  6
Continuous
 62
     7
100
AcDbSpline
210
0.0
220
0.0
230
1.0
 70
     8
 71
     3
 72
     9
 73
     5
 74
     3
 42
0.000000001
 43
0.0000000001
 44
0.00000001
 40
0.0
 40
0.0
 40
0.0
 40
0.0
 40
1.768382491678936
 40
3.9825916088683
 40
3.9825916088683
 40
3.9825916088683
 40
3.9825916088683
 10
200.2722496169846
 20
93.37405102497603
 30
0.0
 10
200.5049847993049
 20
92.78662339431456
 30
0.0
 10
201.0291300075397
 20
91.46367185864179
 30
0.0
 10
202.4707495963973
 20
91.29656830656637
 30
0.0
 10
203.2722496169849
 20
91.2036634317951
 30
0.0
 11
200.2722496169846
 21
93.37405102497603
 31
0.0
 11
201.1513452750073
 21
91.83965620159206
 31
0.0
 11
203.2722496169849
 21
91.2036634317951
 31
0.0
  0
SPLINE
  5
48C
330
1F
100
AcDbEntity
  8
0
  6
Continuous
 62
     7
100
AcDbSpline
210
0.0
220
0.0
230
1.0
 70
     8
 71
     3
 72
     9
 73
     5
 74
     3
 42
0.000000001
 43
0.0000000001
 44
0.00000001
 40
0.0
 40
0.0
 40
0.0
 40
0.0
 40
2.214209117189176
 40
3.982591608868158
 40
3.982591608868158
 40
3.982591608868158
 40
3.982591608868158
 10
244.272249616985
 20
91.20366343179982
 30
0.0
 10
245.0737496375725
 20
91.2965683065713
 30
0.0
 10
246.51536922643
 20
91.46367185864705
 30
0.0
 10
247.0395144346645
 20
92.78662339431993
 30
0.0
 10
247.2722496169847
 20
93.37405102498143
 30
0.0
 11
244.272249616985
 21
91.20366343179982
 31
0.0
 11
246.3931539589623
 21
91.83965620159726
 31
0.0
 11
247.2722496169847
 21
93.37405102498143
 31
0.0
  0
SPLINE
  5
48D
330
1F
100
AcDbEntity
  8
0
  6
Continuous
 62
     7
100
AcDbSpline
210
0.0
220
0.0
230
1.0
 70
     8
 71
     3
 72
    15
 73
    11
 74
     9
 42
0.000000001
 43
0.0000000001
 44
0.00000001
 40
0.0
 40
0.0
 40
0.0
 40
0.0
 40
0.114177585537468
 40
0.2283551710741225
 40
0.4462088493376103
 40
0.8786566279827737
 40
1.333307014824991
 40
1.851904569863793
 40
2.517265182338211
 40
2.999934866138042
 40
2.999934866138042
 40
2.999934866138042
 40
2.999934866138042
 10
53.97231568170557
 20
141.8098132729886
 30
0.0
 10
54.01037487686934
 20
141.8098121894978
 30
0.0
 10
54.0864932671962
 20
141.809810007995
 30
0.0
 10
54.23522955026277
 20
141.8098063091247
 30
0.0
 10
54.49005589767701
 20
141.80980034889
 30
0.0
 10
54.85837317881621
 20
141.8097920668086
 30
0.0
 10
55.32693841893796
 20
141.8097808033216
 30
0.0
 10
55.87314126995257
 20
141.8097721189042
 30
0.0
 10
56.42868388825429
 20
141.8097447109516
 30
0.0
 10
56.81136065124812
 20
141.8097929970773
 30
0.0
 10
56.97225054482536
 20
141.8098133075494
 30
0.0
 11
53.97231568170557
 21
141.8098132729886
 31
0.0
 11
54.08649326719795
 21
141.8098100901304
 31
0.0
 11
54.20067085269805
 21
141.8098071979127
 31
0.0
 11
54.4185245309008
 21
141.8098020539362
 31
0.0
 11
54.85097230943214
 21
141.8097921341679
 31
0.0
 11
55.30562269615916
 21
141.8097819018987
 31
0.0
 11
55.82422025106977
 21
141.8097703750102
 31
0.0
 11
56.48958086351716
 21
141.8097642573855
 31
0.0
 11
56.97225054482536
 21
141.8098133075494
 31
0.0
  0
SPLINE
  5
48E
330
1F
100
AcDbEntity
  8
0
  6
Continuous
 62
     7
100
AcDbSpline
210
0.0
220
0.0
230
1.0
 70
     8
 71
     3
 72
    15
 73
    11
 74
     9
 42
0.000000001
 43
0.0000000001
 44
0.00000001
 40
0.0
 40
0.0
 40
0.0
 40
0.0
 40
0.6884400477627793
 40
1.14807107946091
 40
1.58033449829634
 40
2.121364093682098
 40
2.437438445381511
 40
2.77169980179081
 40
2.885883740685162
 40
3.000067679579589
 40
3.000067679579589
 40
3.000067679579589
 40
3.000067679579589
 10
138.4722505448254
 20
141.8098133075494
 30
0.0
 10
138.7017305606866
 20
141.8098080701601
 30
0.0
 10
139.0844209204075
 20
141.8097993490876
 30
0.0
 10
139.6111990863715
 20
141.8097874306956
 30
0.0
 10
140.0888404348891
 20
141.8097766268479
 30
0.0
 10
140.5186295567524
 20
141.8097668932372
 30
0.0
 10
140.9157513244814
 20
141.8097578723374
 30
0.0
 10
141.1705912067502
 20
141.8097520934253
 30
0.0
 10
141.3581342847665
 20
141.8097477732944
 30
0.0
 10
141.4342569106753
 20
141.8097459939136
 30
0.0
 10
141.4723182236297
 20
141.8097451045753
 30
0.0
 11
138.4722505448254
 21
141.8098133075494
 31
0.0
 11
139.1606905924095
 21
141.8097976235269
 31
0.0
 11
139.6203216239898
 21
141.8097872147638
 31
0.0
 11
140.0525850427146
 21
141.8097774351069
 31
0.0
 11
140.5936146379615
 21
141.8097651772451
 31
0.0
 11
140.9096889895795
 21
141.8097580020479
 31
0.0
 11
141.2439503459021
 21
141.8097503900909
 31
0.0
 11
141.3581342847663
 21
141.8097477645313
 31
0.0
 11
141.4723182236297
 21
141.8097451045753
 31
0.0
  0
SPLINE
  5
48F
330
1F
100
AcDbEntity
  8
0
  6
Continuous
 62
     7
100
AcDbSpline
210
0.0
220
0.0
230
1.0
 70
     8
 71
     3
 72
    11
 73
     7
 74
     5
 42
0.000000001
 43
0.0000000001
 44
0.00000001
 40
0.0
 40
0.0
 40
0.0
 40
0.0
 40
0.1141806848321501
 40
0.2283613696634266
 40
0.3326242127214816
 40
0.499999641765141
 40
0.499999641765141
 40
0.499999641765141
 40
0.499999641765141
 10
205.2722499788289
 20
141.8098134182814
 30
0.0
 10
205.3103102068819
 20
141.8098175531683
 30
0.0
 10
205.3864306629895
 20
141.8098258080902
 30
0.0
 10
205.4973053994703
 20
141.8098417493312
 30
0.0
 10
205.6259117191287
 20
141.8098429665565
 30
0.0
 10
205.7164578082639
 20
141.8098246202242
 30
0.0
 10
205.7722496169793
 20
141.8098133075451
 30
0.0
 11
205.2722499788289
 21
141.8098134182814
 31
0.0
 11
205.3864306629126
 21
141.8098264904531
 31
0.0
 11
205.5006113469962
 21
141.8098395626249
 31
0.0
 11
205.6048741900544
 21
141.8098399483067
 31
0.0
 11
205.7722496169793
 21
141.8098133075451
 31
0.0
  0
SPLINE
  5
490
330
1F
100
AcDbEntity
  8
0
  6
Continuous
 62
     7
100
AcDbSpline
210
0.0
220
0.0
230
1.0
 70
     8
 71
     3
 72
    13
 73
     9
 74
     7
 42
0.000000001
 43
0.0000000001
 44
0.00000001
 40
0.0
 40
0.0
 40
0.0
 40
0.0
 40
0.1671389243600175
 40
0.378679895973456
 40
0.8333411043374253
 40
1.351949820004253
 40
2.017325063352092
 40
2.500000008342558
 40
2.500000008342558
 40
2.500000008342558
 40
2.500000008342558
 10
205.7722496169793
 20
141.8098133075451
 30
0.0
 10
205.827962589981
 20
141.8098283606019
 30
0.0
 10
205.9541892179246
 20
141.8098624814949
 30
0.0
 10
206.2319695880596
 20
141.8098600342265
 30
0.0
 10
206.6269065520954
 20
141.8098730625301
 30
0.0
 10
207.1731216079302
 20
141.8098739377048
 30
0.0
 10
207.7286745774748
 20
141.8098934419819
 30
0.0
 10
208.1113579701103
 20
141.8098370214379
 30
0.0
 10
208.2722496169793
 20
141.8098133075454
 30
0.0
 11
205.7722496169793
 21
141.8098133075451
 31
0.0
 11
205.93938853695
 21
141.8098516069309
 31
0.0
 11
206.1509295083241
 21
141.8098616740788
 31
0.0
 11
206.6055907166093
 21
141.8098701272852
 31
0.0
 11
207.1241994322382
 21
141.8098763863752
 31
0.0
 11
207.7895746755743
 21
141.8098721054288
 31
0.0
 11
208.2722496169793
 21
141.8098133075454
 31
0.0
  0
SPLINE
  5
491
330
1F
100
AcDbEntity
  8
0
  6
Continuous
 62
     7
100
AcDbSpline
210
0.0
220
0.0
230
1.0
 70
     8
 71
     3
 72
    11
 73
     7
 74
     5
 42
0.000000001
 43
0.0000000001
 44
0.00000001
 40
0.0
 40
0.0
 40
0.0
 40
0.0
 40
0.1410818918724662
 40
0.2716412273979261
 40
0.3790344091596297
 40
0.5000029094403331
 40
0.5000029094403331
 40
0.5000029094403331
 40
0.5000029094403331
 10
241.7722496169792
 20
141.8098133075492
 30
0.0
 10
241.8192769126771
 20
141.8098003134915
 30
0.0
 10
241.9098239854132
 20
141.8097753171442
 30
0.0
 10
242.0361687890716
 20
141.8097718813303
 30
0.0
 10
242.1558091278051
 20
141.8097620776784
 30
0.0
 10
242.2319296877236
 20
141.8097510693202
 30
0.0
 10
242.2722525207459
 20
141.8097452315702
 30
0.0
 11
241.7722496169792
 21
141.8098133075492
 31
0.0
 11
241.9133315050187
 21
141.8097804172683
 31
0.0
 11
242.0438908401594
 21
141.8097703740275
 31
0.0
 11
242.1512840215462
 21
141.8097614033592
 31
0.0
 11
242.2722525207459
 21
141.8097452315702
 31
0.0
  0
SPLINE
  5
492
330
1F
100
AcDbEntity
  8
0
  6
Continuous
 62
     7
100
AcDbSpline
210
0.0
220
0.0
230
1.0
 70
     8
 71
     3
 72
    13
 73
     9
 74
     7
 42
0.000000001
 43
0.0000000001
 44
0.00000001
 40
0.0
 40
0.0
 40
0.0
 40
0.0
 40
0.6884202892887629
 40
1.148051187582584
 40
1.754688902101825
 40
2.121322219824602
 40
2.297735947688973
 40
2.500000001292353
 40
2.500000001292353
 40
2.500000001292353
 40
2.500000001292353
 10
239.2722496169792
 20
141.8098133075489
 30
0.0
 10
239.5017230467453
 20
141.8098127483377
 30
0.0
 10
239.8844067759446
 20
141.8098118026317
 30
0.0
 10
240.4693030765949
 20
141.8098071476861
 30
0.0
 10
240.9469370535348
 20
141.8098008159429
 30
0.0
 10
241.3301653065559
 20
141.8097942094706
 30
0.0
 10
241.5786023400336
 20
141.809786937533
 30
0.0
 10
241.7048282662691
 20
141.8098041312541
 30
0.0
 10
241.7722496169792
 20
141.8098133075492
 30
0.0
 11
239.2722496169792
 21
141.8098133075489
 31
0.0
 11
239.9606699062631
 21
141.8098108690982
 31
0.0
 11
240.4203008045423
 21
141.809807197783
 31
0.0
 11
241.0269385190096
 21
141.8097992634533
 31
0.0
 11
241.393571836663
 21
141.8097921336693
 31
0.0
 11
241.5699855645268
 21
141.8097917332281
 31
0.0
 11
241.7722496169792
 21
141.8098133075492
 31
0.0
  0
LWPOLYLINE
  5
493
330
1F
100
AcDbEntity
  8
0
  6
Continuous
 62
     7
 60
     1
100
AcDbPolyline
 90
        2
 70
     0
 43
0.0
 10
-1360.530208935477
 20
3111.790483943297
 10
-1324.446504624729
 20
3121.249655415158
  0
LWPOLYLINE
  5
494
330
1F
100
AcDbEntity
  8
0
  6
Continuous
 62
     7
 60
     1
100
AcDbPolyline
 90
        2
 70
     0
 43
0.0
 10
-1645.530208935478
 20
3111.790483943297
 10
-1609.446504624738
 20
3093.349655415168
  0
LWPOLYLINE
  5
495
330
1F
100
AcDbEntity
  8
0
  6
Continuous
 62
     7
 60
     1
100
AcDbPolyline
 90
        2
 70
     0
 43
0.0
 10
-1761.924427917769
 20
3111.790483943297
 10
-1725.840723607018
 20
3088.349655415168
  0
LWPOLYLINE
  5
496
330
1F
100
AcDbEntity
  8
0
  6
Continuous
 62
     7
 60
     1
100
AcDbPolyline
 90
        2
 70
     0
 43
0.0
 10
-1360.530208935477
 20
3111.790483943297
 10
-1324.446504624729
 20
3121.249655415158
  0
LWPOLYLINE
  5
497
330
1F
100
AcDbEntity
  8
0
  6
Continuous
 62
     7
 60
     1
100
AcDbPolyline
 90
        2
 70
     0
 43
0.0
 10
-1645.530208935478
 20
3111.790483943297
 10
-1609.446504624738
 20
3093.349655415168
  0
LWPOLYLINE
  5
498
330
1F
100
AcDbEntity
  8
0
  6
Continuous
 62
     7
 60
     1
100
AcDbPolyline
 90
        2
 70
     0
 43
0.0
 10
-1761.924427917769
 20
3111.790483943297
 10
-1725.840723607018
 20
3088.349655415168
  0
LWPOLYLINE
  5
499
330
1F
100
AcDbEntity
  8
0
  6
Continuous
 62
     7
 60
     1
100
AcDbPolyline
 90
        2
 70
     0
 43
0.0
 10
-1366.757628290316
 20
3115.964929507814
 10
-1330.673923979568
 20
3125.424100979673
  0
LWPOLYLINE
  5
49A
330
1F
100
AcDbEntity
  8
0
  6
Continuous
 62
     7
 60
     1
100
AcDbPolyline
 90
        2
 70
     0
 43
0.0
 10
-1651.757628290317
 20
3115.964929507814
 10
-1615.673923979577
 20
3097.524100979683
  0
LWPOLYLINE
  5
49B
330
1F
100
AcDbEntity
  8
0
  6
Continuous
 62
     7
 60
     1
100
AcDbPolyline
 90
        2
 70
     0
 43
0.0
 10
-1768.151847272609
 20
3115.964929507814
 10
-1732.068142961857
 20
3092.524100979683
  0
LWPOLYLINE
  5
49C
330
1F
100
AcDbEntity
  8
0
  6
Continuous
 62
     7
 60
     1
100
AcDbPolyline
 90
        2
 70
     0
 43
0.0
 10
-1348.483210563577
 20
3117.2974811085
 10
-1312.399506252829
 20
3126.75665258036
  0
LWPOLYLINE
  5
49D
330
1F
100
AcDbEntity
  8
0
  6
Continuous
 62
     7
 60
     1
100
AcDbPolyline
 90
        2
 70
     0
 43
0.0
 10
-1633.483210563578
 20
3117.2974811085
 10
-1597.399506252838
 20
3098.85665258037
  0
LWPOLYLINE
  5
49E
330
1F
100
AcDbEntity
  8
0
  6
Continuous
 62
     7
 60
     1
100
AcDbPolyline
 90
        2
 70
     0
 43
0.0
 10
-1749.877429545869
 20
3117.2974811085
 10
-1713.793725235118
 20
3093.85665258037
  0
LWPOLYLINE
  5
49F
330
1F
100
AcDbEntity
  8
0
  6
Continuous
 62
     7
 60
     1
100
AcDbPolyline
 90
        2
 70
     0
 43
0.0
 10
-1348.483210563577
 20
3117.2974811085
 10
-1312.399506252829
 20
3126.75665258036
  0
LWPOLYLINE
  5
4A0
330
1F
100
AcDbEntity
  8
0
  6
Continuous
 62
     7
 60
     1
100
AcDbPolyline
 90
        2
 70
     0
 43
0.0
 10
-1633.483210563578
 20
3117.2974811085
 10
-1597.399506252838
 20
3098.85665258037
  0
LWPOLYLINE
  5
4A1
330
1F
100
AcDbEntity
  8
0
  6
Continuous
 62
     7
 60
     1
100
AcDbPolyline
 90
        2
 70
     0
 43
0.0
 10
-1749.877429545869
 20
3117.2974811085
 10
-1713.793725235118
 20
3093.85665258037
  0
LWPOLYLINE
  5
4A2
330
1F
100
AcDbEntity
  8
0
  6
Continuous
 62
     7
 60
     1
100
AcDbPolyline
 90
        2
 70
     0
 43
0.0
 10
-1354.710629918416
 20
3121.471926673017
 10
-1318.626925607668
 20
3130.931098144876
  0
LWPOLYLINE
  5
4A3
330
1F
100
AcDbEntity
  8
0
  6
Continuous
 62
     7
 60
     1
100
AcDbPolyline
 90
        2
 70
     0
 43
0.0
 10
-1639.710629918418
 20
3121.471926673017
 10
-1603.626925607677
 20
3103.031098144886
  0
LWPOLYLINE
  5
4A4
330
1F
100
AcDbEntity
  8
0
  6
Continuous
 62
     7
 60
     1
100
AcDbPolyline
 90
        2
 70
     0
 43
0.0
 10
-1756.104848900709
 20
3121.471926673017
 10
-1720.021144589957
 20
3098.031098144886
  0
LWPOLYLINE
  5
4A5
330
1F
100
AcDbEntity
  8
0
  6
Continuous
 62
     7
 60
     1
100
AcDbPolyline
 90
        2
 70
     0
 43
0.0
 10
-1761.249742358504
 20
3121.237405735212
 10
-1725.166038047752
 20
3097.796577207081
  0
LWPOLYLINE
  5
4A6
330
1F
100
AcDbEntity
  8
0
  6
Continuous
 62
     7
 60
     1
100
AcDbPolyline
 90
        2
 70
     0
 43
0.0
 10
-1644.855523376213
 20
3121.237405735212
 10
-1608.771819065472
 20
3102.796577207081
  0
LWPOLYLINE
  5
4A7
330
1F
100
AcDbEntity
  8
0
  6
Continuous
 62
     7
 60
     1
100
AcDbPolyline
 90
        2
 70
     0
 43
0.0
 10
-1359.855523376211
 20
3121.237405735212
 10
-1323.771819065463
 20
3130.696577207071
  0
LWPOLYLINE
  5
4A8
330
1F
100
AcDbEntity
  8
0
  6
Continuous
 62
     7
 60
     1
100
AcDbPolyline
 90
        2
 70
     0
 43
0.0
 10
-1755.022323003664
 20
3117.062960170695
 10
-1718.938618692913
 20
3093.622131642565
  0
LWPOLYLINE
  5
4A9
330
1F
100
AcDbEntity
  8
0
  6
Continuous
 62
     7
 60
     1
100
AcDbPolyline
 90
        2
 70
     0
 43
0.0
 10
-1638.628104021373
 20
3117.062960170695
 10
-1602.544399710633
 20
3098.622131642565
  0
LWPOLYLINE
  5
4AA
330
1F
100
AcDbEntity
  8
0
  6
Continuous
 62
     7
 60
     1
100
AcDbPolyline
 90
        2
 70
     0
 43
0.0
 10
-1353.628104021372
 20
3117.062960170695
 10
-1317.544399710624
 20
3126.522131642555
  0
LWPOLYLINE
  5
4AB
330
1F
100
AcDbEntity
  8
0
  6
Continuous
 62
     7
 60
     1
100
AcDbPolyline
 90
        2
 70
     0
 43
0.0
 10
-1755.022323003664
 20
3117.062960170695
 10
-1718.938618692913
 20
3093.622131642565
  0
LWPOLYLINE
  5
4AC
330
1F
100
AcDbEntity
  8
0
  6
Continuous
 62
     7
 60
     1
100
AcDbPolyline
 90
        2
 70
     0
 43
0.0
 10
-1638.628104021373
 20
3117.062960170695
 10
-1602.544399710633
 20
3098.622131642565
  0
LWPOLYLINE
  5
4AD
330
1F
100
AcDbEntity
  8
0
  6
Continuous
 62
     7
 60
     1
100
AcDbPolyline
 90
        2
 70
     0
 43
0.0
 10
-1353.628104021372
 20
3117.062960170695
 10
-1317.544399710624
 20
3126.522131642555
  0
LWPOLYLINE
  5
4AE
330
1F
100
AcDbEntity
  8
0
  6
Continuous
 62
     7
 60
     1
100
AcDbPolyline
 90
        2
 70
     0
 43
0.0
 10
-1773.296740730404
 20
3115.730408570008
 10
-1737.213036419652
 20
3092.289580041878
  0
LWPOLYLINE
  5
4AF
330
1F
100
AcDbEntity
  8
0
  6
Continuous
 62
     7
 60
     1
100
AcDbPolyline
 90
        2
 70
     0
 43
0.0
 10
-1656.902521748112
 20
3115.730408570008
 10
-1620.818817437372
 20
3097.289580041878
  0
LWPOLYLINE
  5
4B0
330
1F
100
AcDbEntity
  8
0
  6
Continuous
 62
     7
 60
     1
100
AcDbPolyline
 90
        2
 70
     0
 43
0.0
 10
-1371.902521748111
 20
3115.730408570008
 10
-1335.818817437363
 20
3125.189580041867
  0
LWPOLYLINE
  5
4B1
330
1F
100
AcDbEntity
  8
0
  6
Continuous
 62
     7
 60
     1
100
AcDbPolyline
 90
        2
 70
     0
 43
0.0
 10
-1767.069321375564
 20
3111.555963005492
 10
-1730.985617064813
 20
3088.115134477363
  0
LWPOLYLINE
  5
4B2
330
1F
100
AcDbEntity
  8
0
  6
Continuous
 62
     7
 60
     1
100
AcDbPolyline
 90
        2
 70
     0
 43
0.0
 10
-1650.675102393273
 20
3111.555963005492
 10
-1614.591398082533
 20
3093.115134477363
  0
LWPOLYLINE
  5
4B3
330
1F
100
AcDbEntity
  8
0
  6
Continuous
 62
     7
 60
     1
100
AcDbPolyline
 90
        2
 70
     0
 43
0.0
 10
-1365.675102393272
 20
3111.555963005492
 10
-1329.591398082524
 20
3121.015134477353
  0
LWPOLYLINE
  5
4B4
330
1F
100
AcDbEntity
  8
0
  6
Continuous
 62
     7
 60
     1
100
AcDbPolyline
 90
        2
 70
     0
 43
0.0
 10
-1767.069321375564
 20
3111.555963005492
 10
-1730.985617064813
 20
3088.115134477363
  0
LWPOLYLINE
  5
4B5
330
1F
100
AcDbEntity
  8
0
  6
Continuous
 62
     7
 60
     1
100
AcDbPolyline
 90
        2
 70
     0
 43
0.0
 10
-1650.675102393273
 20
3111.555963005492
 10
-1614.591398082533
 20
3093.115134477363
  0
LWPOLYLINE
  5
4B6
330
1F
100
AcDbEntity
  8
0
  6
Continuous
 62
     7
 60
     1
100
AcDbPolyline
 90
        2
 70
     0
 43
0.0
 10
-1365.675102393272
 20
3111.555963005492
 10
-1329.591398082524
 20
3121.015134477353
  0
LWPOLYLINE
  5
4B7
330
1F
100
AcDbEntity
  8
0
  6
Continuous
 62
     7
 60
     1
100
AcDbPolyline
 90
        2
 70
     0
 43
0.0
 10
-2026.858351880241
 20
2881.394438233768
 10
-1990.774647569489
 20
2857.953609705637
  0
LWPOLYLINE
  5
4B8
330
1F
100
AcDbEntity
  8
0
  6
Continuous
 62
     7
 60
     1
100
AcDbPolyline
 90
        2
 70
     0
 43
0.0
 10
-1910.46413289795
 20
2881.394438233768
 10
-1874.380428587209
 20
2862.953609705637
  0
LWPOLYLINE
  5
4B9
330
1F
100
AcDbEntity
  8
0
  6
Continuous
 62
     7
 60
     1
100
AcDbPolyline
 90
        2
 70
     0
 43
0.0
 10
-1625.464132897948
 20
2881.394438233768
 10
-1589.3804285872
 20
2890.853609705627
  0
LWPOLYLINE
  5
4BA
330
1F
100
AcDbEntity
  8
0
  6
Continuous
 62
     7
 60
     1
100
AcDbPolyline
 90
        2
 70
     0
 43
0.0
 10
-2020.630932525401
 20
2877.219992669251
 10
-1984.54722821465
 20
2853.77916414112
  0
LWPOLYLINE
  5
4BB
330
1F
100
AcDbEntity
  8
0
  6
Continuous
 62
     7
 60
     1
100
AcDbPolyline
 90
        2
 70
     0
 43
0.0
 10
-1904.23671354311
 20
2877.219992669251
 10
-1868.15300923237
 20
2858.77916414112
  0
LWPOLYLINE
  5
4BC
330
1F
100
AcDbEntity
  8
0
  6
Continuous
 62
     7
 60
     1
100
AcDbPolyline
 90
        2
 70
     0
 43
0.0
 10
-1619.236713543109
 20
2877.219992669251
 10
-1583.153009232361
 20
2886.679164141111
  0
LWPOLYLINE
  5
4BD
330
1F
100
AcDbEntity
  8
0
  6
Continuous
 62
     7
 60
     1
100
AcDbPolyline
 90
        2
 70
     0
 43
0.0
 10
-2020.630932525401
 20
2877.219992669251
 10
-1984.54722821465
 20
2853.77916414112
  0
LWPOLYLINE
  5
4BE
330
1F
100
AcDbEntity
  8
0
  6
Continuous
 62
     7
 60
     1
100
AcDbPolyline
 90
        2
 70
     0
 43
0.0
 10
-1904.23671354311
 20
2877.219992669251
 10
-1868.15300923237
 20
2858.77916414112
  0
LWPOLYLINE
  5
4BF
330
1F
100
AcDbEntity
  8
0
  6
Continuous
 62
     7
 60
     1
100
AcDbPolyline
 90
        2
 70
     0
 43
0.0
 10
-1619.236713543109
 20
2877.219992669251
 10
-1583.153009232361
 20
2886.679164141111
  0
LWPOLYLINE
  5
4C0
330
1F
100
AcDbEntity
  8
0
  6
Continuous
 62
     7
 60
     1
100
AcDbPolyline
 90
        2
 70
     0
 43
0.0
 10
-2038.905350252141
 20
2875.887441068564
 10
-2002.821645941389
 20
2852.446612540434
  0
LWPOLYLINE
  5
4C1
330
1F
100
AcDbEntity
  8
0
  6
Continuous
 62
     7
 60
     1
100
AcDbPolyline
 90
        2
 70
     0
 43
0.0
 10
-1922.511131269849
 20
2875.887441068564
 10
-1886.427426959109
 20
2857.446612540434
  0
LWPOLYLINE
  5
4C2
330
1F
100
AcDbEntity
  8
0
  6
Continuous
 62
     7
 60
     1
100
AcDbPolyline
 90
        2
 70
     0
 43
0.0
 10
-1637.511131269848
 20
2875.887441068564
 10
-1601.4274269591
 20
2885.346612540423
  0
LWPOLYLINE
  5
4C3
330
1F
100
AcDbEntity
  8
0
  6
Continuous
 62
     7
 60
     1
100
AcDbPolyline
 90
        2
 70
     0
 43
0.0
 10
-2032.677930897301
 20
2871.712995504048
 10
-1996.59422658655
 20
2848.272166975919
  0
LWPOLYLINE
  5
4C4
330
1F
100
AcDbEntity
  8
0
  6
Continuous
 62
     7
 60
     1
100
AcDbPolyline
 90
        2
 70
     0
 43
0.0
 10
-1916.28371191501
 20
2871.712995504048
 10
-1880.20000760427
 20
2853.272166975919
  0
LWPOLYLINE
  5
4C5
330
1F
100
AcDbEntity
  8
0
  6
Continuous
 62
     7
 60
     1
100
AcDbPolyline
 90
        2
 70
     0
 43
0.0
 10
-1631.283711915009
 20
2871.712995504048
 10
-1595.200007604261
 20
2881.172166975909
  0
LWPOLYLINE
  5
4C6
330
1F
100
AcDbEntity
  8
0
  6
Continuous
 62
     7
 60
     1
100
AcDbPolyline
 90
        2
 70
     0
 43
0.0
 10
-2032.677930897301
 20
2871.712995504048
 10
-1996.59422658655
 20
2848.272166975919
  0
LWPOLYLINE
  5
4C7
330
1F
100
AcDbEntity
  8
0
  6
Continuous
 62
     7
 60
     1
100
AcDbPolyline
 90
        2
 70
     0
 43
0.0
 10
-1916.28371191501
 20
2871.712995504048
 10
-1880.20000760427
 20
2853.272166975919
  0
LWPOLYLINE
  5
4C8
330
1F
100
AcDbEntity
  8
0
  6
Continuous
 62
     7
 60
     1
100
AcDbPolyline
 90
        2
 70
     0
 43
0.0
 10
-1631.283711915009
 20
2871.712995504048
 10
-1595.200007604261
 20
2881.172166975909
  0
LWPOLYLINE
  5
4C9
330
1F
100
AcDbEntity
  8
0
  6
Continuous
 62
     7
 60
     1
100
AcDbPolyline
 90
        2
 70
     0
 43
0.0
 10
-1422.225521840847
 20
3115.108585615735
 10
-1386.141817530095
 20
3091.667757087604
  0
LWPOLYLINE
  5
4CA
330
1F
100
AcDbEntity
  8
0
  6
Continuous
 62
     7
 60
     1
100
AcDbPolyline
 90
        2
 70
     0
 43
0.0
 10
-1305.831302858556
 20
3115.108585615735
 10
-1269.747598547815
 20
3096.667757087604
  0
LWPOLYLINE
  5
4CB
330
1F
100
AcDbEntity
  8
0
  6
Continuous
 62
     7
 60
     1
100
AcDbPolyline
 90
        2
 70
     0
 43
0.0
 10
-1020.831302858554
 20
3115.108585615735
 10
-984.747598547806
 20
3124.567757087594
  0
LWPOLYLINE
  5
4CC
330
1F
100
AcDbEntity
  8
0
  6
Continuous
 62
     7
 60
     1
100
AcDbPolyline
 90
        2
 70
     0
 43
0.0
 10
-1415.998102486007
 20
3110.934140051218
 10
-1379.914398175256
 20
3087.493311523088
  0
LWPOLYLINE
  5
4CD
330
1F
100
AcDbEntity
  8
0
  6
Continuous
 62
     7
 60
     1
100
AcDbPolyline
 90
        2
 70
     0
 43
0.0
 10
-1299.603883503716
 20
3110.934140051218
 10
-1263.520179192976
 20
3092.493311523088
  0
LWPOLYLINE
  5
4CE
330
1F
100
AcDbEntity
  8
0
  6
Continuous
 62
     7
 60
     1
100
AcDbPolyline
 90
        2
 70
     0
 43
0.0
 10
-1014.603883503715
 20
3110.934140051218
 10
-978.520179192967
 20
3120.393311523078
  0
LWPOLYLINE
  5
4CF
330
1F
100
AcDbEntity
  8
0
  6
Continuous
 62
     7
 60
     1
100
AcDbPolyline
 90
        2
 70
     0
 43
0.0
 10
-1415.998102486007
 20
3110.934140051218
 10
-1379.914398175256
 20
3087.493311523088
  0
LWPOLYLINE
  5
4D0
330
1F
100
AcDbEntity
  8
0
  6
Continuous
 62
     7
 60
     1
100
AcDbPolyline
 90
        2
 70
     0
 43
0.0
 10
-1299.603883503716
 20
3110.934140051218
 10
-1263.520179192976
 20
3092.493311523088
  0
LWPOLYLINE
  5
4D1
330
1F
100
AcDbEntity
  8
0
  6
Continuous
 62
     7
 60
     1
100
AcDbPolyline
 90
        2
 70
     0
 43
0.0
 10
-1014.603883503715
 20
3110.934140051218
 10
-978.520179192967
 20
3120.393311523078
  0
LWPOLYLINE
  5
4D2
330
1F
100
AcDbEntity
  8
0
  6
Continuous
 62
     7
 60
     1
100
AcDbPolyline
 90
        2
 70
     0
 43
0.0
 10
-1434.272520212747
 20
3109.601588450532
 10
-1398.188815901995
 20
3086.160759922401
  0
LWPOLYLINE
  5
4D3
330
1F
100
AcDbEntity
  8
0
  6
Continuous
 62
     7
 60
     1
100
AcDbPolyline
 90
        2
 70
     0
 43
0.0
 10
-1317.878301230455
 20
3109.601588450532
 10
-1281.794596919715
 20
3091.160759922401
  0
LWPOLYLINE
  5
4D4
330
1F
100
AcDbEntity
  8
0
  6
Continuous
 62
     7
 60
     1
100
AcDbPolyline
 90
        2
 70
     0
 43
0.0
 10
-1032.878301230454
 20
3109.601588450532
 10
-996.7945969197059
 20
3119.060759922391
  0
LWPOLYLINE
  5
4D5
330
1F
100
AcDbEntity
  8
0
  6
Continuous
 62
     7
 60
     1
100
AcDbPolyline
 90
        2
 70
     0
 43
0.0
 10
-1428.045100857907
 20
3105.427142886015
 10
-1391.961396547156
 20
3081.986314357886
  0
LWPOLYLINE
  5
4D6
330
1F
100
AcDbEntity
  8
0
  6
Continuous
 62
     7
 60
     1
100
AcDbPolyline
 90
        2
 70
     0
 43
0.0
 10
-1311.650881875616
 20
3105.427142886015
 10
-1275.567177564876
 20
3086.986314357886
  0
LWPOLYLINE
  5
4D7
330
1F
100
AcDbEntity
  8
0
  6
Continuous
 62
     7
 60
     1
100
AcDbPolyline
 90
        2
 70
     0
 43
0.0
 10
-1026.650881875615
 20
3105.427142886015
 10
-990.5671775648669
 20
3114.886314357876
  0
LWPOLYLINE
  5
4D8
330
1F
100
AcDbEntity
  8
0
  6
Continuous
 62
     7
 60
     1
100
AcDbPolyline
 90
        2
 70
     0
 43
0.0
 10
-1428.045100857907
 20
3105.427142886015
 10
-1391.961396547156
 20
3081.986314357886
  0
LWPOLYLINE
  5
4D9
330
1F
100
AcDbEntity
  8
0
  6
Continuous
 62
     7
 60
     1
100
AcDbPolyline
 90
        2
 70
     0
 43
0.0
 10
-1311.650881875616
 20
3105.427142886015
 10
-1275.567177564876
 20
3086.986314357886
  0
LWPOLYLINE
  5
4DA
330
1F
100
AcDbEntity
  8
0
  6
Continuous
 62
     7
 60
     1
100
AcDbPolyline
 90
        2
 70
     0
 43
0.0
 10
-1026.650881875615
 20
3105.427142886015
 10
-990.5671775648669
 20
3114.886314357876
  0
LWPOLYLINE
  5
4DB
330
1F
100
AcDbEntity
  8
0
  6
Continuous
 62
     7
 60
     1
100
AcDbPolyline
 90
        2
 70
     0
 43
0.0
 10
-1687.834131362584
 20
2875.265618114291
 10
-1651.750427051832
 20
2851.82478958616
  0
LWPOLYLINE
  5
4DC
330
1F
100
AcDbEntity
  8
0
  6
Continuous
 62
     7
 60
     1
100
AcDbPolyline
 90
        2
 70
     0
 43
0.0
 10
-1571.439912380293
 20
2875.265618114291
 10
-1535.356208069552
 20
2856.82478958616
  0
LWPOLYLINE
  5
4DD
330
1F
100
AcDbEntity
  8
0
  6
Continuous
 62
     7
 60
     1
100
AcDbPolyline
 90
        2
 70
     0
 43
0.0
 10
-1286.439912380291
 20
2875.265618114291
 10
-1250.356208069543
 20
2884.72478958615
  0
LWPOLYLINE
  5
4DE
330
1F
100
AcDbEntity
  8
0
  6
Continuous
 62
     7
 60
     1
100
AcDbPolyline
 90
        2
 70
     0
 43
0.0
 10
-1681.606712007744
 20
2871.091172549774
 10
-1645.523007696993
 20
2847.650344021644
  0
LWPOLYLINE
  5
4DF
330
1F
100
AcDbEntity
  8
0
  6
Continuous
 62
     7
 60
     1
100
AcDbPolyline
 90
        2
 70
     0
 43
0.0
 10
-1565.212493025453
 20
2871.091172549774
 10
-1529.128788714713
 20
2852.650344021644
  0
LWPOLYLINE
  5
4E0
330
1F
100
AcDbEntity
  8
0
  6
Continuous
 62
     7
 60
     1
100
AcDbPolyline
 90
        2
 70
     0
 43
0.0
 10
-1280.212493025452
 20
2871.091172549774
 10
-1244.128788714704
 20
2880.550344021634
  0
LWPOLYLINE
  5
4E1
330
1F
100
AcDbEntity
  8
0
  6
Continuous
 62
     7
 60
     1
100
AcDbPolyline
 90
        2
 70
     0
 43
0.0
 10
-1681.606712007744
 20
2871.091172549774
 10
-1645.523007696993
 20
2847.650344021644
  0
LWPOLYLINE
  5
4E2
330
1F
100
AcDbEntity
  8
0
  6
Continuous
 62
     7
 60
     1
100
AcDbPolyline
 90
        2
 70
     0
 43
0.0
 10
-1565.212493025453
 20
2871.091172549774
 10
-1529.128788714713
 20
2852.650344021644
  0
LWPOLYLINE
  5
4E3
330
1F
100
AcDbEntity
  8
0
  6
Continuous
 62
     7
 60
     1
100
AcDbPolyline
 90
        2
 70
     0
 43
0.0
 10
-1280.212493025452
 20
2871.091172549774
 10
-1244.128788714704
 20
2880.550344021634
  0
LWPOLYLINE
  5
4E4
330
1F
100
AcDbEntity
  8
0
  6
Continuous
 62
     7
 60
     1
100
AcDbPolyline
 90
        2
 70
     0
 43
0.0
 10
-1699.881129734484
 20
2869.758620949088
 10
-1663.797425423732
 20
2846.317792420957
  0
LWPOLYLINE
  5
4E5
330
1F
100
AcDbEntity
  8
0
  6
Continuous
 62
     7
 60
     1
100
AcDbPolyline
 90
        2
 70
     0
 43
0.0
 10
-1583.486910752192
 20
2869.758620949088
 10
-1547.403206441452
 20
2851.317792420957
  0
LWPOLYLINE
  5
4E6
330
1F
100
AcDbEntity
  8
0
  6
Continuous
 62
     7
 60
     1
100
AcDbPolyline
 90
        2
 70
     0
 43
0.0
 10
-1298.486910752191
 20
2869.758620949088
 10
-1262.403206441443
 20
2879.217792420947
  0
LWPOLYLINE
  5
4E7
330
1F
100
AcDbEntity
  8
0
  6
Continuous
 62
     7
 60
     1
100
AcDbPolyline
 90
        2
 70
     0
 43
0.0
 10
-1693.653710379644
 20
2865.584175384571
 10
-1657.570006068893
 20
2842.143346856442
  0
LWPOLYLINE
  5
4E8
330
1F
100
AcDbEntity
  8
0
  6
Continuous
 62
     7
 60
     1
100
AcDbPolyline
 90
        2
 70
     0
 43
0.0
 10
-1577.259491397353
 20
2865.584175384571
 10
-1541.175787086613
 20
2847.143346856442
  0
LWPOLYLINE
  5
4E9
330
1F
100
AcDbEntity
  8
0
  6
Continuous
 62
     7
 60
     1
100
AcDbPolyline
 90
        2
 70
     0
 43
0.0
 10
-1292.259491397352
 20
2865.584175384571
 10
-1256.175787086604
 20
2875.043346856432
  0
LWPOLYLINE
  5
4EA
330
1F
100
AcDbEntity
  8
0
  6
Continuous
 62
     7
 60
     1
100
AcDbPolyline
 90
        2
 70
     0
 43
0.0
 10
-1693.653710379644
 20
2865.584175384571
 10
-1657.570006068893
 20
2842.143346856442
  0
LWPOLYLINE
  5
4EB
330
1F
100
AcDbEntity
  8
0
  6
Continuous
 62
     7
 60
     1
100
AcDbPolyline
 90
        2
 70
     0
 43
0.0
 10
-1577.259491397353
 20
2865.584175384571
 10
-1541.175787086613
 20
2847.143346856442
  0
LWPOLYLINE
  5
4EC
330
1F
100
AcDbEntity
  8
0
  6
Continuous
 62
     7
 60
     1
100
AcDbPolyline
 90
        2
 70
     0
 43
0.0
 10
-1292.259491397352
 20
2865.584175384571
 10
-1256.175787086604
 20
2875.043346856432
  0
MTEXT
  5
4EE
330
1F
100
AcDbEntity
  8
1
 62
     4
100
AcDbMText
 10
223.7722496172648
 20
69.3098129285736
 30
0.0
 40
3.5
 41
0.0
 71
     2
 72
     1
  1
 
  7
CONVERTER_13
 73
     1
 44
1.32052821128451
  0
DIMENSION
  5
4F9
330
1F
100
AcDbEntity
  8
1
100
AcDbDimension
  2
*D4
 10
162.7588844990112
 20
57.6525777666228
 30
0.0
 11
97.72225054482541
 21
61.1525777666228
 31
0.0
 70
    32
  1
130
 71
     5
 42
-1.0
 53
0.00013888888889
  3
ME10_DIM_10
100
AcDbAlignedDimension
 13
32.6856165906396
 23
99.30981330755053
 33
0.0
 14
162.7588844990112
 24
99.30981330755053
 34
0.0
100
AcDbRotatedDimension
  0
DIMENSION
  5
504
330
1F
100
AcDbEntity
  8
1
100
AcDbDimension
  2
*D5
 10
22.2580601937797
 20
91.8098133075445
 30
0.0
 11
18.6080601937797
 21
123.5598133075458
 31
0.0
 70
    32
  1
<>
 71
     5
 42
-1.0
 53
90.0
  3
ME10_DIM_11
100
AcDbAlignedDimension
 13
79.72225054482536
 23
155.3098133075471
 33
0.0
 14
72.97225054482507
 24
91.80981330754453
 34
0.0
 50
90.0
100
AcDbRotatedDimension
  0
DIMENSION
  5
50F
330
1F
100
AcDbEntity
  8
1
100
AcDbDimension
  2
*D6
 10
252.7722496169869
 20
57.3501015892691
 30
0.0
 11
223.7722496169868
 21
60.8501015892691
 31
0.0
 70
    32
  1
<>
 71
     5
 42
-1.0
 53
0.00013888888889
  3
ME10_DIM_12
100
AcDbAlignedDimension
 13
194.7722496169868
 23
74.30981330754763
 33
0.0
 14
252.7722496169869
 24
74.30981330755431
 34
0.0
100
AcDbRotatedDimension
  0
DIMENSION
  5
51A
330
1F
100
AcDbEntity
  8
1
100
AcDbDimension
  2
*D7
 10
81.72225054482536
 20
171.055845071225
 30
0.0
 11
97.72225054482539
 21
174.555845071225
 31
0.0
 70
    32
  1
M32
 71
     5
 42
-1.0
 53
0.00013888888889
  3
ME10_DIM_13
100
AcDbAlignedDimension
 13
113.7222505448254
 23
155.4098133075473
 33
0.0
 14
81.72225054482536
 24
155.3098133075471
 34
0.0
100
AcDbRotatedDimension
  0
ENDSEC
  0
SECTION
  2
OBJECTS
  0
DICTIONARY
  5
C
330
0
100
AcDbDictionary
281
     1
  3
ACAD_GROUP
350
D
  3
ACAD_LAYOUT
350
1A
  3
ACAD_MATERIAL
350
3B
  3
ACAD_MLEADERSTYLE
350
51D
  3
ACAD_MLINESTYLE
350
17
  3
ACAD_PLOTSETTINGS
350
19
  3
ACAD_PLOTSTYLENAME
350
E
  3
ACAD_VISUALSTYLE
350
2A
  3
AcDbVariableDictionary
350
51B
  0
DICTIONARY
  5
D
102
{ACAD_REACTORS
330
C
102
}
330
C
100
AcDbDictionary
281
     1
  0
DICTIONARY
  5
1A
102
{ACAD_REACTORS
330
C
102
}
330
C
100
AcDbDictionary
281
     1
  3
Layout1
350
1E
  3
Layout2
350
26
  3
Model
350
22
  0
DICTIONARY
  5
3B
102
{ACAD_REACTORS
330
C
102
}
330
C
100
AcDbDictionary
281
     1
  3
ByBlock
350
3D
  3
ByLayer
350
3C
  3
Global
350
3E
  0
DICTIONARY
  5
51D
102
{ACAD_REACTORS
330
C
102
}
330
C
100
AcDbDictionary
281
     1
  0
DICTIONARY
  5
17
102
{ACAD_REACTORS
330
C
102
}
330
C
100
AcDbDictionary
281
     1
  3
Standard
350
18
  0
DICTIONARY
  5
19
102
{ACAD_REACTORS
330
C
102
}
330
C
100
AcDbDictionary
281
     1
  0
ACDBDICTIONARYWDFLT
  5
E
102
{ACAD_REACTORS
330
C
102
}
330
C
100
AcDbDictionary
281
     1
  3
Normal
350
F
100
AcDbDictionaryWithDefault
340
F
  0
DICTIONARY
  5
2A
102
{ACAD_REACTORS
330
C
102
}
330
C
100
AcDbDictionary
281
     1
  3
2dWireframe
350
2F
  3
3D Hidden
350
31
  3
3dWireframe
350
30
  3
Basic
350
32
  3
Brighten
350
36
  3
ColorChange
350
3A
  3
Conceptual
350
34
  3
Dim
350
35
  3
Facepattern
350
39
  3
Flat
350
2B
  3
FlatWithEdges
350
2C
  3
Gouraud
350
2D
  3
GouraudWithEdges
350
2E
  3
Linepattern
350
38
  3
Realistic
350
33
  3
Thicken
350
37
  0
DICTIONARY
  5
51B
102
{ACAD_REACTORS
330
C
102
}
330
C
100
AcDbDictionary
281
     1
  3
DIMASSOC
350
51E
  3
HIDETEXT
350
51F
  0
LAYOUT
  5
1E
102
{ACAD_REACTORS
330
1A
102
}
330
1A
100
AcDbPlotSettings
  1

  2
none_device
  4

  6

 40
0.0
 41
0.0
 42
0.0
 43
0.0
 44
0.0
 45
0.0
 46
0.0
 47
0.0
 48
0.0
 49
0.0
140
0.0
141
0.0
142
1.0
143
1.0
 70
   688
 72
     0
 73
     0
 74
     5
  7

 75
    16
147
1.0
148
0.0
149
0.0
100
AcDbLayout
  1
Layout1
 70
     1
 71
     1
 10
0.0
 20
0.0
 11
12.0
 21
9.0
 12
0.0
 22
0.0
 32
0.0
 14
1.00000000000000E+20
 24
1.00000000000000E+20
 34
1.00000000000000E+20
 15
-1.00000000000000E+20
 25
-1.00000000000000E+20
 35
-1.00000000000000E+20
146
0.0
 13
0.0
 23
0.0
 33
0.0
 16
1.0
 26
0.0
 36
0.0
 17
0.0
 27
1.0
 37
0.0
 76
     0
330
1B
  0
LAYOUT
  5
26
102
{ACAD_REACTORS
330
1A
102
}
330
1A
100
AcDbPlotSettings
  1

  2
none_device
  4

  6

 40
0.0
 41
0.0
 42
0.0
 43
0.0
 44
0.0
 45
0.0
 46
0.0
 47
0.0
 48
0.0
 49
0.0
140
0.0
141
0.0
142
1.0
143
1.0
 70
   688
 72
     0
 73
     0
 74
     5
  7

 75
    16
147
1.0
148
0.0
149
0.0
100
AcDbLayout
  1
Layout2
 70
     1
 71
     2
 10
0.0
 20
0.0
 11
0.0
 21
0.0
 12
0.0
 22
0.0
 32
0.0
 14
0.0
 24
0.0
 34
0.0
 15
0.0
 25
0.0
 35
0.0
146
0.0
 13
0.0
 23
0.0
 33
0.0
 16
1.0
 26
0.0
 36
0.0
 17
0.0
 27
1.0
 37
0.0
 76
     0
330
23
  0
LAYOUT
  5
22
102
{ACAD_REACTORS
330
1A
102
}
330
1A
100
AcDbPlotSettings
  1

  2
none_device
  4

  6

 40
0.0
 41
0.0
 42
0.0
 43
0.0
 44
0.0
 45
0.0
 46
0.0
 47
0.0
 48
0.0
 49
0.0
140
0.0
141
0.0
142
1.0
143
1.0
 70
  1712
 72
     0
 73
     0
 74
     0
  7

 75
     0
147
1.0
148
0.0
149
0.0
100
AcDbLayout
  1
Model
 70
     1
 71
     0
 10
0.0
 20
0.0
 11
12.0
 21
9.0
 12
0.0
 22
0.0
 32
0.0
 14
-5.14489345779498
 24
-0.23452093780543
 34
0.0
 15
291.8551065422055
 25
209.7654790621948
 35
0.0
146
0.0
 13
0.0
 23
0.0
 33
0.0
 16
1.0
 26
0.0
 36
0.0
 17
0.0
 27
1.0
 37
0.0
 76
     0
330
1F
331
29
  0
MATERIAL
  5
3D
102
{ACAD_REACTORS
330
3B
102
}
102
{ACAD_XDICTIONARY
360
542
102
}
330
3B
100
AcDbMaterial
  1
ByBlock
  0
MATERIAL
  5
3C
102
{ACAD_REACTORS
330
3B
102
}
102
{ACAD_XDICTIONARY
360
540
102
}
330
3B
100
AcDbMaterial
  1
ByLayer
  0
MATERIAL
  5
3E
102
{ACAD_REACTORS
330
3B
102
}
102
{ACAD_XDICTIONARY
360
544
102
}
330
3B
100
AcDbMaterial
  1
Global
  0
MLINESTYLE
  5
18
102
{ACAD_REACTORS
330
17
102
}
330
17
100
AcDbMlineStyle
  2
Standard
 70
     0
  3

 62
   256
 51
90.0
 52
90.0
 71
     2
 49
0.5
 62
   256
  6
BYLAYER
 49
-0.5
 62
   256
  6
BYLAYER
  0
ACDBPLACEHOLDER
  5
F
102
{ACAD_REACTORS
330
E
102
}
330
E
  0
VISUALSTYLE
  5
2F
102
{ACAD_REACTORS
330
2A
102
}
102
{ACAD_XDICTIONARY
360
528
102
}
330
2A
100
AcDbVisualStyle
  2
2dWireframe
 70
     4
 71
     0
 72
     2
 73
     0
 90
        0
 40
-0.6
 41
-30.0
 62
     5
 63
     7
 74
     1
 91
        4
 64
     7
 65
   257
 75
     1
175
     1
 42
1.0
 92
        0
 66
   257
 43
1.0
 76
     1
 77
     6
 78
     2
 67
     7
 79
     5
170
     0
171
     0
290
     0
174
     0
 93
        1
 44
0.0
173
     0
291
     0
 45
0.0
1001
ACAD
1000
AcDbSavedByObjectVersion
1070
     0
  0
VISUALSTYLE
  5
31
102
{ACAD_REACTORS
330
2A
102
}
102
{ACAD_XDICTIONARY
360
52C
102
}
330
2A
100
AcDbVisualStyle
  2
3D Hidden
 70
     6
 71
     1
 72
     2
 73
     2
 90
        0
 40
-0.6
 41
-30.0
 62
     5
 63
     7
 74
     2
 91
        2
 64
     7
 65
   257
 75
     2
175
     1
 42
40.0
 92
        0
 66
   257
 43
1.0
 76
     1
 77
     6
 78
     2
 67
     7
 79
     3
170
     0
171
     0
290
     0
174
     0
 93
        1
 44
0.0
173
     0
291
     0
 45
0.0
1001
ACAD
1000
AcDbSavedByObjectVersion
1070
     0
  0
VISUALSTYLE
  5
30
102
{ACAD_REACTORS
330
2A
102
}
102
{ACAD_XDICTIONARY
360
52A
102
}
330
2A
100
AcDbVisualStyle
  2
3dWireframe
 70
     5
 71
     0
 72
     2
 73
     0
 90
        0
 40
-0.6
 41
-30.0
 62
     5
 63
     7
 74
     1
 91
        4
 64
     7
 65
   257
 75
     1
175
     1
 42
1.0
 92
        0
 66
   257
 43
1.0
 76
     1
 77
     6
 78
     2
 67
     7
 79
     5
170
     0
171
     0
290
     0
174
     0
 93
        1
 44
0.0
173
     0
291
     0
 45
0.0
1001
ACAD
1000
AcDbSavedByObjectVersion
1070
     0
  0
VISUALSTYLE
  5
32
102
{ACAD_REACTORS
330
2A
102
}
102
{ACAD_XDICTIONARY
360
52E
102
}
330
2A
100
AcDbVisualStyle
  2
Basic
 70
     7
 71
     1
 72
     0
 73
     1
 90
        0
 40
-0.6
 41
-30.0
 62
     5
 63
     7
 74
     0
 91
        4
 64
     7
 65
   257
 75
     1
175
     1
 42
1.0
 92
        8
 66
     7
 43
1.0
 76
     1
 77
     6
 78
     2
 67
     7
 79
     5
170
     0
171
     0
290
     0
174
     0
 93
        1
 44
0.0
173
     0
291
     1
 45
0.0
1001
ACAD
1000
AcDbSavedByObjectVersion
1070
     0
  0
VISUALSTYLE
  5
36
102
{ACAD_REACTORS
330
2A
102
}
102
{ACAD_XDICTIONARY
360
536
102
}
330
2A
100
AcDbVisualStyle
  2
Brighten
 70
    12
 71
     2
 72
     2
 73
     0
 90
        0
 40
-0.6
 41
-30.0
 62
     5
 63
     7
 74
     1
 91
        4
 64
     7
 65
   257
 75
     1
175
     1
 42
1.0
 92
        8
 66
     7
 43
1.0
 76
     1
 77
     6
 78
     2
 67
     7
 79
     5
170
     0
171
     0
290
     0
174
     0
 93
        1
 44
50.0
173
     0
291
     1
 45
0.0
1001
ACAD
1000
AcDbSavedByObjectVersion
1070
     0
  0
VISUALSTYLE
  5
3A
102
{ACAD_REACTORS
330
2A
102
}
102
{ACAD_XDICTIONARY
360
53E
102
}
330
2A
100
AcDbVisualStyle
  2
ColorChange
 70
    16
 71
     2
 72
     2
 73
     3
 90
        0
 40
-0.6
 41
-30.0
 62
     5
 63
     8
 74
     1
 91
        4
 64
     7
 65
   257
 75
     1
175
     1
 42
1.0
 92
        8
 66
     8
 43
1.0
 76
     1
 77
     6
 78
     2
 67
     7
 79
     5
170
     0
171
     0
290
     0
174
     0
 93
        1
 44
0.0
173
     0
291
     1
 45
0.0
1001
ACAD
1000
AcDbSavedByObjectVersion
1070
     0
  0
VISUALSTYLE
  5
34
102
{ACAD_REACTORS
330
2A
102
}
102
{ACAD_XDICTIONARY
360
532
102
}
330
2A
100
AcDbVisualStyle
  2
Conceptual
 70
     9
 71
     3
 72
     2
 73
     0
 90
        0
 40
-0.6
 41
-30.0
 62
     5
 63
     7
 74
     2
 91
        2
 64
     7
 65
   257
 75
     1
175
     1
 42
40.0
 92
        8
 66
     7
 43
1.0
 76
     1
 77
     6
 78
     2
 67
     7
 79
     3
170
     0
171
     0
290
     0
174
     0
 93
        1
 44
0.0
173
     0
291
     0
 45
0.0
1001
ACAD
1000
AcDbSavedByObjectVersion
1070
     0
  0
VISUALSTYLE
  5
35
102
{ACAD_REACTORS
330
2A
102
}
102
{ACAD_XDICTIONARY
360
534
102
}
330
2A
100
AcDbVisualStyle
  2
Dim
 70
    11
 71
     2
 72
     2
 73
     0
 90
        0
 40
-0.6
 41
-30.0
 62
     5
 63
     7
 74
     1
 91
        4
 64
     7
 65
   257
 75
     1
175
     1
 42
1.0
 92
        8
 66
     7
 43
1.0
 76
     1
 77
     6
 78
     2
 67
     7
 79
     5
170
     0
171
     0
290
     0
174
     0
 93
        1
 44
-50.0
173
     0
291
     1
 45
0.0
1001
ACAD
1000
AcDbSavedByObjectVersion
1070
     0
  0
VISUALSTYLE
  5
39
102
{ACAD_REACTORS
330
2A
102
}
102
{ACAD_XDICTIONARY
360
53C
102
}
330
2A
100
AcDbVisualStyle
  2
Facepattern
 70
    15
 71
     2
 72
     2
 73
     0
 90
        0
 40
-0.6
 41
-30.0
 62
     5
 63
     7
 74
     1
 91
        4
 64
     7
 65
   257
 75
     1
175
     1
 42
1.0
 92
        8
 66
     7
 43
1.0
 76
     1
 77
     6
 78
     2
 67
     7
 79
     5
170
     0
171
     0
290
     0
174
     0
 93
        1
 44
0.0
173
     0
291
     1
 45
0.0
1001
ACAD
1000
AcDbSavedByObjectVersion
1070
     0
  0
VISUALSTYLE
  5
2B
102
{ACAD_REACTORS
330
2A
102
}
102
{ACAD_XDICTIONARY
360
520
102
}
330
2A
100
AcDbVisualStyle
  2
Flat
 70
     0
 71
     2
 72
     1
 73
     1
 90
        2
 40
-0.6
 41
30.0
 62
     5
 63
     7
 74
     0
 91
        4
 64
     7
 65
   257
 75
     1
175
     1
 42
1.0
 92
        8
 66
     7
 43
1.0
 76
     1
 77
     6
 78
     2
 67
     7
 79
     5
170
     0
171
     0
290
     0
174
     0
 93
       13
 44
0.0
173
     0
291
     1
 45
0.0
1001
ACAD
1000
AcDbSavedByObjectVersion
1070
     0
  0
VISUALSTYLE
  5
2C
102
{ACAD_REACTORS
330
2A
102
}
102
{ACAD_XDICTIONARY
360
522
102
}
330
2A
100
AcDbVisualStyle
  2
FlatWithEdges
 70
     1
 71
     2
 72
     1
 73
     1
 90
        2
 40
-0.6
 41
30.0
 62
     5
 63
     7
 74
     1
 91
        4
 64
     7
 65
   257
 75
     1
175
     1
 42
1.0
 92
        0
 66
   257
 43
1.0
 76
     1
 77
     6
 78
     2
 67
     7
 79
     5
170
     0
171
     0
290
     0
174
     0
 93
       13
 44
0.0
173
     0
291
     1
 45
0.0
1001
ACAD
1000
AcDbSavedByObjectVersion
1070
     0
  0
VISUALSTYLE
  5
2D
102
{ACAD_REACTORS
330
2A
102
}
102
{ACAD_XDICTIONARY
360
524
102
}
330
2A
100
AcDbVisualStyle
  2
Gouraud
 70
     2
 71
     2
 72
     2
 73
     1
 90
        2
 40
-0.6
 41
30.0
 62
     5
 63
     7
 74
     0
 91
        4
 64
     7
 65
   257
 75
     1
175
     1
 42
1.0
 92
        0
 66
     7
 43
1.0
 76
     1
 77
     6
 78
     2
 67
     7
 79
     5
170
     0
171
     0
290
     0
174
     0
 93
       13
 44
0.0
173
     0
291
     1
 45
0.0
1001
ACAD
1000
AcDbSavedByObjectVersion
1070
     0
  0
VISUALSTYLE
  5
2E
102
{ACAD_REACTORS
330
2A
102
}
102
{ACAD_XDICTIONARY
360
526
102
}
330
2A
100
AcDbVisualStyle
  2
GouraudWithEdges
 70
     3
 71
     2
 72
     2
 73
     1
 90
        2
 40
-0.6
 41
30.0
 62
     5
 63
     7
 74
     1
 91
        4
 64
     7
 65
   257
 75
     1
175
     1
 42
1.0
 92
        0
 66
   257
 43
1.0
 76
     1
 77
     6
 78
     2
 67
     7
 79
     5
170
     0
171
     0
290
     0
174
     0
 93
       13
 44
0.0
173
     0
291
     1
 45
0.0
1001
ACAD
1000
AcDbSavedByObjectVersion
1070
     0
  0
VISUALSTYLE
  5
38
102
{ACAD_REACTORS
330
2A
102
}
102
{ACAD_XDICTIONARY
360
53A
102
}
330
2A
100
AcDbVisualStyle
  2
Linepattern
 70
    14
 71
     2
 72
     2
 73
     0
 90
        0
 40
-0.6
 41
-30.0
 62
     5
 63
     7
 74
     1
 91
        4
 64
     7
 65
   257
 75
     7
175
     7
 42
1.0
 92
        8
 66
     7
 43
1.0
 76
     1
 77
     6
 78
     2
 67
     7
 79
     5
170
     0
171
     0
290
     0
174
     0
 93
        1
 44
0.0
173
     0
291
     1
 45
0.0
1001
ACAD
1000
AcDbSavedByObjectVersion
1070
     0
  0
VISUALSTYLE
  5
33
102
{ACAD_REACTORS
330
2A
102
}
102
{ACAD_XDICTIONARY
360
530
102
}
330
2A
100
AcDbVisualStyle
  2
Realistic
 70
     8
 71
     2
 72
     2
 73
     0
 90
        0
 40
-0.6
 41
-30.0
 62
     5
 63
     7
 74
     1
 91
        0
 64
     7
 65
   257
 75
     1
175
     1
 42
1.0
 92
        8
 66
     8
 43
1.0
 76
     1
 77
     6
 78
     2
 67
     7
 79
     5
170
     0
171
     0
290
     0
174
     0
 93
       13
 44
0.0
173
     0
291
     0
 45
0.0
1001
ACAD
1000
AcDbSavedByObjectVersion
1070
     0
  0
VISUALSTYLE
  5
37
102
{ACAD_REACTORS
330
2A
102
}
102
{ACAD_XDICTIONARY
360
538
102
}
330
2A
100
AcDbVisualStyle
  2
Thicken
 70
    13
 71
     2
 72
     2
 73
     0
 90
        0
 40
-0.6
 41
-30.0
 62
     5
 63
     7
 74
     1
 91
        4
 64
     7
 65
   257
 75
     1
175
     1
 42
1.0
 92
       12
 66
     7
 43
1.0
 76
     1
 77
     6
 78
     2
 67
     7
 79
     5
170
     0
171
     0
290
     0
174
     0
 93
        1
 44
0.0
173
     0
291
     1
 45
0.0
1001
ACAD
1000
AcDbSavedByObjectVersion
1070
     0
  0
DICTIONARYVAR
  5
51E
102
{ACAD_REACTORS
330
51B
102
}
330
51B
100
DictionaryVariables
280
     0
  1
2
  0
DICTIONARYVAR
  5
51F
102
{ACAD_REACTORS
330
51B
102
}
330
51B
100
DictionaryVariables
280
     0
  1
1
  0
DICTIONARY
  5
542
330
3D
100
AcDbDictionary
280
     1
281
     1
  3
ACAD_XREC_ROUNDTRIP
360
543
  0
DICTIONARY
  5
540
330
3C
100
AcDbDictionary
280
     1
281
     1
  3
ACAD_XREC_ROUNDTRIP
360
541
  0
DICTIONARY
  5
544
330
3E
100
AcDbDictionary
280
     1
281
     1
  3
ACAD_XREC_ROUNDTRIP
360
545
  0
DICTIONARY
  5
528
330
2F
100
AcDbDictionary
280
     1
281
     1
  3
ACAD_XREC_ROUNDTRIP
360
529
  0
DICTIONARY
  5
52C
330
31
100
AcDbDictionary
280
     1
281
     1
  3
ACAD_XREC_ROUNDTRIP
360
52D
  0
DICTIONARY
  5
52A
330
30
100
AcDbDictionary
280
     1
281
     1
  3
ACAD_XREC_ROUNDTRIP
360
52B
  0
DICTIONARY
  5
52E
330
32
100
AcDbDictionary
280
     1
281
     1
  3
ACAD_XREC_ROUNDTRIP
360
52F
  0
DICTIONARY
  5
536
330
36
100
AcDbDictionary
280
     1
281
     1
  3
ACAD_XREC_ROUNDTRIP
360
537
  0
DICTIONARY
  5
53E
330
3A
100
AcDbDictionary
280
     1
281
     1
  3
ACAD_XREC_ROUNDTRIP
360
53F
  0
DICTIONARY
  5
532
330
34
100
AcDbDictionary
280
     1
281
     1
  3
ACAD_XREC_ROUNDTRIP
360
533
  0
DICTIONARY
  5
534
330
35
100
AcDbDictionary
280
     1
281
     1
  3
ACAD_XREC_ROUNDTRIP
360
535
  0
DICTIONARY
  5
53C
330
39
100
AcDbDictionary
280
     1
281
     1
  3
ACAD_XREC_ROUNDTRIP
360
53D
  0
DICTIONARY
  5
520
330
2B
100
AcDbDictionary
280
     1
281
     1
  3
ACAD_XREC_ROUNDTRIP
360
521
  0
DICTIONARY
  5
522
330
2C
100
AcDbDictionary
280
     1
281
     1
  3
ACAD_XREC_ROUNDTRIP
360
523
  0
DICTIONARY
  5
524
330
2D
100
AcDbDictionary
280
     1
281
     1
  3
ACAD_XREC_ROUNDTRIP
360
525
  0
DICTIONARY
  5
526
330
2E
100
AcDbDictionary
280
     1
281
     1
  3
ACAD_XREC_ROUNDTRIP
360
527
  0
DICTIONARY
  5
53A
330
38
100
AcDbDictionary
280
     1
281
     1
  3
ACAD_XREC_ROUNDTRIP
360
53B
  0
DICTIONARY
  5
530
330
33
100
AcDbDictionary
280
     1
281
     1
  3
ACAD_XREC_ROUNDTRIP
360
531
  0
DICTIONARY
  5
538
330
37
100
AcDbDictionary
280
     1
281
     1
  3
ACAD_XREC_ROUNDTRIP
360
539
  0
XRECORD
  5
543
102
{ACAD_REACTORS
330
542
102
}
330
542
100
AcDbXrecord
280
     1
102
MATERIAL
148
0.0
149
0.0
149
0.0
 93
        0
 94
      127
282
     0
 72
     1
 77
     1
171
     1
175
     1
179
     1
273
     0
  0
XRECORD
  5
541
102
{ACAD_REACTORS
330
540
102
}
330
540
100
AcDbXrecord
280
     1
102
MATERIAL
148
0.0
149
0.0
149
0.0
 93
        0
 94
      127
282
     0
 72
     1
 77
     1
171
     1
175
     1
179
     1
273
     0
  0
XRECORD
  5
545
102
{ACAD_REACTORS
330
544
102
}
330
544
100
AcDbXrecord
280
     1
102
MATERIAL
148
0.0
149
0.0
149
0.0
 93
        0
 94
      127
282
     0
 72
     1
 77
     1
171
     1
175
     1
179
     1
273
     0
  0
XRECORD
  5
529
102
{ACAD_REACTORS
330
528
102
}
330
528
100
AcDbXrecord
280
     1
102
RTVSPropertyOp0
 70
     1
102
RTVSPropertyOp1
 70
     1
102
RTVSPropertyOp2
 70
     1
102
RTVSPropertyOp3
 70
     1
102
RTVSPropertyOp4
 70
     1
102
RTVSPropertyOp5
 70
     1
102
RTVSPropertyOp6
 70
     1
102
RTVSPropertyOp7
 70
     1
102
RTVSPropertyOp8
 70
     1
102
RTVSPropertyOp9
 70
     1
102
RTVSPropertyOp10
 70
     1
102
RTVSPropertyOp11
 70
     1
102
RTVSPropertyOp12
 70
     1
102
RTVSPropertyOp13
 70
     1
102
RTVSPropertyOp14
 70
     1
102
RTVSPropertyOp15
 70
     1
102
RTVSPropertyOp16
 70
     1
102
RTVSPropertyOp17
 70
     1
102
RTVSPropertyOp18
 70
     1
102
RTVSPropertyOp19
 70
     1
102
RTVSPropertyOp20
 70
     1
102
RTVSPropertyOp21
 70
     1
102
RTVSPropertyOp22
 70
     1
102
RTVSPropertyOp23
 70
     1
102
RTVSPropertyOp24
 70
     1
102
RTVSPropertyOp25
 70
     1
102
RTVSPropertyOp26
 70
     1
102
RTVSPropertyOp27
 70
     1
102
RTVSPropertyOp28
 70
     1
102
RTVSPropertyOp29
 70
     1
102
RTVSPropertyOp30
 70
     1
102
RTVSPropertyOp31
 70
     1
102
RTVSPropertyOp32
 70
     1
  0
XRECORD
  5
52D
102
{ACAD_REACTORS
330
52C
102
}
330
52C
100
AcDbXrecord
280
     1
102
RTVSPropertyOp0
 70
     1
102
RTVSPropertyOp1
 70
     1
102
RTVSPropertyOp2
 70
     1
102
RTVSPropertyOp3
 70
     1
102
RTVSPropertyOp4
 70
     1
102
RTVSPropertyOp5
 70
     1
102
RTVSPropertyOp6
 70
     1
102
RTVSPropertyOp7
 70
     1
102
RTVSPropertyOp8
 70
     1
102
RTVSPropertyOp9
 70
     1
102
RTVSPropertyOp10
 70
     1
102
RTVSPropertyOp11
 70
     1
102
RTVSPropertyOp12
 70
     1
102
RTVSPropertyOp13
 70
     1
102
RTVSPropertyOp14
 70
     1
102
RTVSPropertyOp15
 70
     1
102
RTVSPropertyOp16
 70
     1
102
RTVSPropertyOp17
 70
     1
102
RTVSPropertyOp18
 70
     1
102
RTVSPropertyOp19
 70
     1
102
RTVSPropertyOp20
 70
     1
102
RTVSPropertyOp21
 70
     1
102
RTVSPropertyOp22
 70
     1
102
RTVSPropertyOp23
 70
     1
102
RTVSPropertyOp24
 70
     1
102
RTVSPropertyOp25
 70
     1
102
RTVSPropertyOp26
 70
     1
102
RTVSPropertyOp27
 70
     1
102
RTVSPropertyOp28
 70
     1
102
RTVSPropertyOp29
 70
     1
102
RTVSPropertyOp30
 70
     1
102
RTVSPropertyOp31
 70
     1
102
RTVSPropertyOp32
 70
     1
  0
XRECORD
  5
52B
102
{ACAD_REACTORS
330
52A
102
}
330
52A
100
AcDbXrecord
280
     1
102
RTVSPropertyOp0
 70
     1
102
RTVSPropertyOp1
 70
     1
102
RTVSPropertyOp2
 70
     1
102
RTVSPropertyOp3
 70
     1
102
RTVSPropertyOp4
 70
     1
102
RTVSPropertyOp5
 70
     1
102
RTVSPropertyOp6
 70
     1
102
RTVSPropertyOp7
 70
     1
102
RTVSPropertyOp8
 70
     1
102
RTVSPropertyOp9
 70
     1
102
RTVSPropertyOp10
 70
     1
102
RTVSPropertyOp11
 70
     1
102
RTVSPropertyOp12
 70
     1
102
RTVSPropertyOp13
 70
     1
102
RTVSPropertyOp14
 70
     1
102
RTVSPropertyOp15
 70
     1
102
RTVSPropertyOp16
 70
     1
102
RTVSPropertyOp17
 70
     1
102
RTVSPropertyOp18
 70
     1
102
RTVSPropertyOp19
 70
     1
102
RTVSPropertyOp20
 70
     1
102
RTVSPropertyOp21
 70
     1
102
RTVSPropertyOp22
 70
     1
102
RTVSPropertyOp23
 70
     1
102
RTVSPropertyOp24
 70
     1
102
RTVSPropertyOp25
 70
     1
102
RTVSPropertyOp26
 70
     1
102
RTVSPropertyOp27
 70
     1
102
RTVSPropertyOp28
 70
     1
102
RTVSPropertyOp29
 70
     1
102
RTVSPropertyOp30
 70
     1
102
RTVSPropertyOp31
 70
     1
102
RTVSPropertyOp32
 70
     1
  0
XRECORD
  5
52F
102
{ACAD_REACTORS
330
52E
102
}
330
52E
100
AcDbXrecord
280
     1
102
RTVSPropertyOp0
 70
     1
102
RTVSPropertyOp1
 70
     1
102
RTVSPropertyOp2
 70
     1
102
RTVSPropertyOp3
 70
     1
102
RTVSPropertyOp4
 70
     1
102
RTVSPropertyOp5
 70
     1
102
RTVSPropertyOp6
 70
     1
102
RTVSPropertyOp7
 70
     1
102
RTVSPropertyOp8
 70
     1
102
RTVSPropertyOp9
 70
     1
102
RTVSPropertyOp10
 70
     1
102
RTVSPropertyOp11
 70
     1
102
RTVSPropertyOp12
 70
     1
102
RTVSPropertyOp13
 70
     1
102
RTVSPropertyOp14
 70
     1
102
RTVSPropertyOp15
 70
     1
102
RTVSPropertyOp16
 70
     1
102
RTVSPropertyOp17
 70
     1
102
RTVSPropertyOp18
 70
     1
102
RTVSPropertyOp19
 70
     1
102
RTVSPropertyOp20
 70
     1
102
RTVSPropertyOp21
 70
     1
102
RTVSPropertyOp22
 70
     1
102
RTVSPropertyOp23
 70
     1
102
RTVSPropertyOp24
 70
     1
102
RTVSPropertyOp25
 70
     1
102
RTVSPropertyOp26
 70
     1
102
RTVSPropertyOp27
 70
     1
102
RTVSPropertyOp28
 70
     1
102
RTVSPropertyOp29
 70
     1
102
RTVSPropertyOp30
 70
     1
102
RTVSPropertyOp31
 70
     1
102
RTVSPropertyOp32
 70
     1
  0
XRECORD
  5
537
102
{ACAD_REACTORS
330
536
102
}
330
536
100
AcDbXrecord
280
     1
102
RTVSPropertyOp0
 70
     1
102
RTVSPropertyOp1
 70
     1
102
RTVSPropertyOp2
 70
     1
102
RTVSPropertyOp3
 70
     1
102
RTVSPropertyOp4
 70
     1
102
RTVSPropertyOp5
 70
     1
102
RTVSPropertyOp6
 70
     1
102
RTVSPropertyOp7
 70
     1
102
RTVSPropertyOp8
 70
     1
102
RTVSPropertyOp9
 70
     1
102
RTVSPropertyOp10
 70
     1
102
RTVSPropertyOp11
 70
     1
102
RTVSPropertyOp12
 70
     1
102
RTVSPropertyOp13
 70
     1
102
RTVSPropertyOp14
 70
     1
102
RTVSPropertyOp15
 70
     1
102
RTVSPropertyOp16
 70
     1
102
RTVSPropertyOp17
 70
     1
102
RTVSPropertyOp18
 70
     1
102
RTVSPropertyOp19
 70
     1
102
RTVSPropertyOp20
 70
     1
102
RTVSPropertyOp21
 70
     1
102
RTVSPropertyOp22
 70
     1
102
RTVSPropertyOp23
 70
     1
102
RTVSPropertyOp24
 70
     1
102
RTVSPropertyOp25
 70
     1
102
RTVSPropertyOp26
 70
     1
102
RTVSPropertyOp27
 70
     1
102
RTVSPropertyOp28
 70
     1
102
RTVSPropertyOp29
 70
     1
102
RTVSPropertyOp30
 70
     1
102
RTVSPropertyOp31
 70
     1
102
RTVSPropertyOp32
 70
     1
  0
XRECORD
  5
53F
102
{ACAD_REACTORS
330
53E
102
}
330
53E
100
AcDbXrecord
280
     1
102
RTVSPropertyOp0
 70
     1
102
RTVSPropertyOp1
 70
     1
102
RTVSPropertyOp2
 70
     1
102
RTVSPropertyOp3
 70
     1
102
RTVSPropertyOp4
 70
     1
102
RTVSPropertyOp5
 70
     1
102
RTVSPropertyOp6
 70
     1
102
RTVSPropertyOp7
 70
     1
102
RTVSPropertyOp8
 70
     1
102
RTVSPropertyOp9
 70
     1
102
RTVSPropertyOp10
 70
     1
102
RTVSPropertyOp11
 70
     1
102
RTVSPropertyOp12
 70
     1
102
RTVSPropertyOp13
 70
     1
102
RTVSPropertyOp14
 70
     1
102
RTVSPropertyOp15
 70
     1
102
RTVSPropertyOp16
 70
     1
102
RTVSPropertyOp17
 70
     1
102
RTVSPropertyOp18
 70
     1
102
RTVSPropertyOp19
 70
     1
102
RTVSPropertyOp20
 70
     1
102
RTVSPropertyOp21
 70
     1
102
RTVSPropertyOp22
 70
     1
102
RTVSPropertyOp23
 70
     1
102
RTVSPropertyOp24
 70
     1
102
RTVSPropertyOp25
 70
     1
102
RTVSPropertyOp26
 70
     1
102
RTVSPropertyOp27
 70
     1
102
RTVSPropertyOp28
 70
     1
102
RTVSPropertyOp29
 70
     1
102
RTVSPropertyOp30
 70
     1
102
RTVSPropertyOp31
 70
     1
102
RTVSPropertyOp32
 70
     1
  0
XRECORD
  5
533
102
{ACAD_REACTORS
330
532
102
}
330
532
100
AcDbXrecord
280
     1
102
RTVSPropertyOp0
 70
     1
102
RTVSPropertyOp1
 70
     1
102
RTVSPropertyOp2
 70
     1
102
RTVSPropertyOp3
 70
     1
102
RTVSPropertyOp4
 70
     1
102
RTVSPropertyOp5
 70
     1
102
RTVSPropertyOp6
 70
     1
102
RTVSPropertyOp7
 70
     1
102
RTVSPropertyOp8
 70
     1
102
RTVSPropertyOp9
 70
     1
102
RTVSPropertyOp10
 70
     1
102
RTVSPropertyOp11
 70
     1
102
RTVSPropertyOp12
 70
     1
102
RTVSPropertyOp13
 70
     1
102
RTVSPropertyOp14
 70
     1
102
RTVSPropertyOp15
 70
     1
102
RTVSPropertyOp16
 70
     1
102
RTVSPropertyOp17
 70
     1
102
RTVSPropertyOp18
 70
     1
102
RTVSPropertyOp19
 70
     1
102
RTVSPropertyOp20
 70
     1
102
RTVSPropertyOp21
 70
     1
102
RTVSPropertyOp22
 70
     1
102
RTVSPropertyOp23
 70
     1
102
RTVSPropertyOp24
 70
     1
102
RTVSPropertyOp25
 70
     1
102
RTVSPropertyOp26
 70
     1
102
RTVSPropertyOp27
 70
     1
102
RTVSPropertyOp28
 70
     1
102
RTVSPropertyOp29
 70
     1
102
RTVSPropertyOp30
 70
     1
102
RTVSPropertyOp31
 70
     1
102
RTVSPropertyOp32
 70
     1
  0
XRECORD
  5
535
102
{ACAD_REACTORS
330
534
102
}
330
534
100
AcDbXrecord
280
     1
102
RTVSPropertyOp0
 70
     1
102
RTVSPropertyOp1
 70
     1
102
RTVSPropertyOp2
 70
     1
102
RTVSPropertyOp3
 70
     1
102
RTVSPropertyOp4
 70
     1
102
RTVSPropertyOp5
 70
     1
102
RTVSPropertyOp6
 70
     1
102
RTVSPropertyOp7
 70
     1
102
RTVSPropertyOp8
 70
     1
102
RTVSPropertyOp9
 70
     1
102
RTVSPropertyOp10
 70
     1
102
RTVSPropertyOp11
 70
     1
102
RTVSPropertyOp12
 70
     1
102
RTVSPropertyOp13
 70
     1
102
RTVSPropertyOp14
 70
     1
102
RTVSPropertyOp15
 70
     1
102
RTVSPropertyOp16
 70
     1
102
RTVSPropertyOp17
 70
     1
102
RTVSPropertyOp18
 70
     1
102
RTVSPropertyOp19
 70
     1
102
RTVSPropertyOp20
 70
     1
102
RTVSPropertyOp21
 70
     1
102
RTVSPropertyOp22
 70
     1
102
RTVSPropertyOp23
 70
     1
102
RTVSPropertyOp24
 70
     1
102
RTVSPropertyOp25
 70
     1
102
RTVSPropertyOp26
 70
     1
102
RTVSPropertyOp27
 70
     1
102
RTVSPropertyOp28
 70
     1
102
RTVSPropertyOp29
 70
     1
102
RTVSPropertyOp30
 70
     1
102
RTVSPropertyOp31
 70
     1
102
RTVSPropertyOp32
 70
     1
  0
XRECORD
  5
53D
102
{ACAD_REACTORS
330
53C
102
}
330
53C
100
AcDbXrecord
280
     1
102
RTVSPropertyOp0
 70
     1
102
RTVSPropertyOp1
 70
     1
102
RTVSPropertyOp2
 70
     1
102
RTVSPropertyOp3
 70
     1
102
RTVSPropertyOp4
 70
     1
102
RTVSPropertyOp5
 70
     1
102
RTVSPropertyOp6
 70
     1
102
RTVSPropertyOp7
 70
     1
102
RTVSPropertyOp8
 70
     1
102
RTVSPropertyOp9
 70
     1
102
RTVSPropertyOp10
 70
     1
102
RTVSPropertyOp11
 70
     1
102
RTVSPropertyOp12
 70
     1
102
RTVSPropertyOp13
 70
     1
102
RTVSPropertyOp14
 70
     1
102
RTVSPropertyOp15
 70
     1
102
RTVSPropertyOp16
 70
     1
102
RTVSPropertyOp17
 70
     1
102
RTVSPropertyOp18
 70
     1
102
RTVSPropertyOp19
 70
     1
102
RTVSPropertyOp20
 70
     1
102
RTVSPropertyOp21
 70
     1
102
RTVSPropertyOp22
 70
     1
102
RTVSPropertyOp23
 70
     1
102
RTVSPropertyOp24
 70
     1
102
RTVSPropertyOp25
 70
     1
102
RTVSPropertyOp26
 70
     1
102
RTVSPropertyOp27
 70
     1
102
RTVSPropertyOp28
 70
     1
102
RTVSPropertyOp29
 70
     1
102
RTVSPropertyOp30
 70
     1
102
RTVSPropertyOp31
 70
     1
102
RTVSPropertyOp32
 70
     1
  0
XRECORD
  5
521
102
{ACAD_REACTORS
330
520
102
}
330
520
100
AcDbXrecord
280
     1
102
RTVSPropertyOp0
 70
     1
102
RTVSPropertyOp1
 70
     1
102
RTVSPropertyOp2
 70
     1
102
RTVSPropertyOp3
 70
     1
102
RTVSPropertyOp4
 70
     1
102
RTVSPropertyOp5
 70
     1
102
RTVSPropertyOp6
 70
     1
102
RTVSPropertyOp7
 70
     1
102
RTVSPropertyOp8
 70
     1
102
RTVSPropertyOp9
 70
     1
102
RTVSPropertyOp10
 70
     1
102
RTVSPropertyOp11
 70
     1
102
RTVSPropertyOp12
 70
     1
102
RTVSPropertyOp13
 70
     1
102
RTVSPropertyOp14
 70
     1
102
RTVSPropertyOp15
 70
     1
102
RTVSPropertyOp16
 70
     1
102
RTVSPropertyOp17
 70
     1
102
RTVSPropertyOp18
 70
     1
102
RTVSPropertyOp19
 70
     1
102
RTVSPropertyOp20
 70
     1
102
RTVSPropertyOp21
 70
     1
102
RTVSPropertyOp22
 70
     1
102
RTVSPropertyOp23
 70
     1
102
RTVSPropertyOp24
 70
     1
102
RTVSPropertyOp25
 70
     1
102
RTVSPropertyOp26
 70
     1
102
RTVSPropertyOp27
 70
     1
102
RTVSPropertyOp28
 70
     1
102
RTVSPropertyOp29
 70
     1
102
RTVSPropertyOp30
 70
     1
102
RTVSPropertyOp31
 70
     1
102
RTVSPropertyOp32
 70
     1
  0
XRECORD
  5
523
102
{ACAD_REACTORS
330
522
102
}
330
522
100
AcDbXrecord
280
     1
102
RTVSPropertyOp0
 70
     1
102
RTVSPropertyOp1
 70
     1
102
RTVSPropertyOp2
 70
     1
102
RTVSPropertyOp3
 70
     1
102
RTVSPropertyOp4
 70
     1
102
RTVSPropertyOp5
 70
     1
102
RTVSPropertyOp6
 70
     1
102
RTVSPropertyOp7
 70
     1
102
RTVSPropertyOp8
 70
     1
102
RTVSPropertyOp9
 70
     1
102
RTVSPropertyOp10
 70
     1
102
RTVSPropertyOp11
 70
     1
102
RTVSPropertyOp12
 70
     1
102
RTVSPropertyOp13
 70
     1
102
RTVSPropertyOp14
 70
     1
102
RTVSPropertyOp15
 70
     1
102
RTVSPropertyOp16
 70
     1
102
RTVSPropertyOp17
 70
     1
102
RTVSPropertyOp18
 70
     1
102
RTVSPropertyOp19
 70
     1
102
RTVSPropertyOp20
 70
     1
102
RTVSPropertyOp21
 70
     1
102
RTVSPropertyOp22
 70
     1
102
RTVSPropertyOp23
 70
     1
102
RTVSPropertyOp24
 70
     1
102
RTVSPropertyOp25
 70
     1
102
RTVSPropertyOp26
 70
     1
102
RTVSPropertyOp27
 70
     1
102
RTVSPropertyOp28
 70
     1
102
RTVSPropertyOp29
 70
     1
102
RTVSPropertyOp30
 70
     1
102
RTVSPropertyOp31
 70
     1
102
RTVSPropertyOp32
 70
     1
  0
XRECORD
  5
525
102
{ACAD_REACTORS
330
524
102
}
330
524
100
AcDbXrecord
280
     1
102
RTVSPropertyOp0
 70
     1
102
RTVSPropertyOp1
 70
     1
102
RTVSPropertyOp2
 70
     1
102
RTVSPropertyOp3
 70
     1
102
RTVSPropertyOp4
 70
     1
102
RTVSPropertyOp5
 70
     1
102
RTVSPropertyOp6
 70
     1
102
RTVSPropertyOp7
 70
     1
102
RTVSPropertyOp8
 70
     1
102
RTVSPropertyOp9
 70
     1
102
RTVSPropertyOp10
 70
     1
102
RTVSPropertyOp11
 70
     1
102
RTVSPropertyOp12
 70
     1
102
RTVSPropertyOp13
 70
     1
102
RTVSPropertyOp14
 70
     1
102
RTVSPropertyOp15
 70
     1
102
RTVSPropertyOp16
 70
     1
102
RTVSPropertyOp17
 70
     1
102
RTVSPropertyOp18
 70
     1
102
RTVSPropertyOp19
 70
     1
102
RTVSPropertyOp20
 70
     1
102
RTVSPropertyOp21
 70
     1
102
RTVSPropertyOp22
 70
     1
102
RTVSPropertyOp23
 70
     1
102
RTVSPropertyOp24
 70
     1
102
RTVSPropertyOp25
 70
     1
102
RTVSPropertyOp26
 70
     1
102
RTVSPropertyOp27
 70
     1
102
RTVSPropertyOp28
 70
     1
102
RTVSPropertyOp29
 70
     1
102
RTVSPropertyOp30
 70
     1
102
RTVSPropertyOp31
 70
     1
102
RTVSPropertyOp32
 70
     1
  0
XRECORD
  5
527
102
{ACAD_REACTORS
330
526
102
}
330
526
100
AcDbXrecord
280
     1
102
RTVSPropertyOp0
 70
     1
102
RTVSPropertyOp1
 70
     1
102
RTVSPropertyOp2
 70
     1
102
RTVSPropertyOp3
 70
     1
102
RTVSPropertyOp4
 70
     1
102
RTVSPropertyOp5
 70
     1
102
RTVSPropertyOp6
 70
     1
102
RTVSPropertyOp7
 70
     1
102
RTVSPropertyOp8
 70
     1
102
RTVSPropertyOp9
 70
     1
102
RTVSPropertyOp10
 70
     1
102
RTVSPropertyOp11
 70
     1
102
RTVSPropertyOp12
 70
     1
102
RTVSPropertyOp13
 70
     1
102
RTVSPropertyOp14
 70
     1
102
RTVSPropertyOp15
 70
     1
102
RTVSPropertyOp16
 70
     1
102
RTVSPropertyOp17
 70
     1
102
RTVSPropertyOp18
 70
     1
102
RTVSPropertyOp19
 70
     1
102
RTVSPropertyOp20
 70
     1
102
RTVSPropertyOp21
 70
     1
102
RTVSPropertyOp22
 70
     1
102
RTVSPropertyOp23
 70
     1
102
RTVSPropertyOp24
 70
     1
102
RTVSPropertyOp25
 70
     1
102
RTVSPropertyOp26
 70
     1
102
RTVSPropertyOp27
 70
     1
102
RTVSPropertyOp28
 70
     1
102
RTVSPropertyOp29
 70
     1
102
RTVSPropertyOp30
 70
     1
102
RTVSPropertyOp31
 70
     1
102
RTVSPropertyOp32
 70
     1
  0
XRECORD
  5
53B
102
{ACAD_REACTORS
330
53A
102
}
330
53A
100
AcDbXrecord
280
     1
102
RTVSPropertyOp0
 70
     1
102
RTVSPropertyOp1
 70
     1
102
RTVSPropertyOp2
 70
     1
102
RTVSPropertyOp3
 70
     1
102
RTVSPropertyOp4
 70
     1
102
RTVSPropertyOp5
 70
     1
102
RTVSPropertyOp6
 70
     1
102
RTVSPropertyOp7
 70
     1
102
RTVSPropertyOp8
 70
     1
102
RTVSPropertyOp9
 70
     1
102
RTVSPropertyOp10
 70
     1
102
RTVSPropertyOp11
 70
     1
102
RTVSPropertyOp12
 70
     1
102
RTVSPropertyOp13
 70
     1
102
RTVSPropertyOp14
 70
     1
102
RTVSPropertyOp15
 70
     1
102
RTVSPropertyOp16
 70
     1
102
RTVSPropertyOp17
 70
     1
102
RTVSPropertyOp18
 70
     1
102
RTVSPropertyOp19
 70
     1
102
RTVSPropertyOp20
 70
     1
102
RTVSPropertyOp21
 70
     1
102
RTVSPropertyOp22
 70
     1
102
RTVSPropertyOp23
 70
     1
102
RTVSPropertyOp24
 70
     1
102
RTVSPropertyOp25
 70
     1
102
RTVSPropertyOp26
 70
     1
102
RTVSPropertyOp27
 70
     1
102
RTVSPropertyOp28
 70
     1
102
RTVSPropertyOp29
 70
     1
102
RTVSPropertyOp30
 70
     1
102
RTVSPropertyOp31
 70
     1
102
RTVSPropertyOp32
 70
     1
  0
XRECORD
  5
531
102
{ACAD_REACTORS
330
530
102
}
330
530
100
AcDbXrecord
280
     1
102
RTVSPropertyOp0
 70
     1
102
RTVSPropertyOp1
 70
     1
102
RTVSPropertyOp2
 70
     1
102
RTVSPropertyOp3
 70
     1
102
RTVSPropertyOp4
 70
     1
102
RTVSPropertyOp5
 70
     1
102
RTVSPropertyOp6
 70
     1
102
RTVSPropertyOp7
 70
     1
102
RTVSPropertyOp8
 70
     1
102
RTVSPropertyOp9
 70
     1
102
RTVSPropertyOp10
 70
     1
102
RTVSPropertyOp11
 70
     1
102
RTVSPropertyOp12
 70
     1
102
RTVSPropertyOp13
 70
     1
102
RTVSPropertyOp14
 70
     1
102
RTVSPropertyOp15
 70
     1
102
RTVSPropertyOp16
 70
     1
102
RTVSPropertyOp17
 70
     1
102
RTVSPropertyOp18
 70
     1
102
RTVSPropertyOp19
 70
     1
102
RTVSPropertyOp20
 70
     1
102
RTVSPropertyOp21
 70
     1
102
RTVSPropertyOp22
 70
     1
102
RTVSPropertyOp23
 70
     1
102
RTVSPropertyOp24
 70
     1
102
RTVSPropertyOp25
 70
     1
102
RTVSPropertyOp26
 70
     1
102
RTVSPropertyOp27
 70
     1
102
RTVSPropertyOp28
 70
     1
102
RTVSPropertyOp29
 70
     1
102
RTVSPropertyOp30
 70
     1
102
RTVSPropertyOp31
 70
     1
102
RTVSPropertyOp32
 70
     1
  0
XRECORD
  5
539
102
{ACAD_REACTORS
330
538
102
}
330
538
100
AcDbXrecord
280
     1
102
RTVSPropertyOp0
 70
     1
102
RTVSPropertyOp1
 70
     1
102
RTVSPropertyOp2
 70
     1
102
RTVSPropertyOp3
 70
     1
102
RTVSPropertyOp4
 70
     1
102
RTVSPropertyOp5
 70
     1
102
RTVSPropertyOp6
 70
     1
102
RTVSPropertyOp7
 70
     1
102
RTVSPropertyOp8
 70
     1
102
RTVSPropertyOp9
 70
     1
102
RTVSPropertyOp10
 70
     1
102
RTVSPropertyOp11
 70
     1
102
RTVSPropertyOp12
 70
     1
102
RTVSPropertyOp13
 70
     1
102
RTVSPropertyOp14
 70
     1
102
RTVSPropertyOp15
 70
     1
102
RTVSPropertyOp16
 70
     1
102
RTVSPropertyOp17
 70
     1
102
RTVSPropertyOp18
 70
     1
102
RTVSPropertyOp19
 70
     1
102
RTVSPropertyOp20
 70
     1
102
RTVSPropertyOp21
 70
     1
102
RTVSPropertyOp22
 70
     1
102
RTVSPropertyOp23
 70
     1
102
RTVSPropertyOp24
 70
     1
102
RTVSPropertyOp25
 70
     1
102
RTVSPropertyOp26
 70
     1
102
RTVSPropertyOp27
 70
     1
102
RTVSPropertyOp28
 70
     1
102
RTVSPropertyOp29
 70
     1
102
RTVSPropertyOp30
 70
     1
102
RTVSPropertyOp31
 70
     1
102
RTVSPropertyOp32
 70
     1
  0
ENDSEC
  0
EOF
